[gg]_Maria+Holic_-_09_[53A50E86].mkv


File Size193.4 MB (202,836,905 bytes)
DownloadAnonFiles | Go4Up | Jheberg | MultiUp | Sendspace | ShareBeast | SolidFiles | UsersFiles
HashesCRC32: 53A50E86, MD5: 0ECA7F77EA8FC7F8C1B444AB87BE8822, SHA1: 653C1BE0AA383E623C2BA66C73D3E3650B070C40, SHA256: 64362DC45D3D9744DF30A20867D20932EAFDAE0926D168B1B1D0F0B1816D87A7, ED2K: EAF8BA341DB84B93615C40DA702B42CA
Screenshots
screenshotscreenshotscreenshotscreenshotscreenshot
SubtitlesAll Attachments | ASS [eng, ASS]
Additional Info
General
Unique ID                                : 117722113156214302408277309570407072790 (0x5890744BFBAA2F4E54544E01630E0416)
Complete name                            : [gg]_Maria+Holic_-_09_[53A50E86].mkv
Format                                   : Matroska
Format version                           : Version 1
File size                                : 193 MiB
Duration                                 : 23mn 41s
Overall bit rate mode                    : Variable
Overall bit rate                         : 1 142 Kbps
Movie name                               : Maria+Holic 09c SHAFT must die.
Encoded date                             : UTC 2009-03-07 11:13:52
Writing application                      : mkvmerge v2.5.2 ('Stranger in your Soul') built on Feb 28 2009 16:12:55
Writing library                          : libebml v0.7.8 + libmatroska v0.8.1
Attachements                             : Cheltenham-Book.otf / Cheltenham-BookCond.otf / DFKAPW5W.TTF / Humana Sans ITC TT Bold.ttf / Humana Sans ITC TT BoldItalic.ttf / Humana Sans ITC TT Light.ttf / Humana Sans ITC TT LightItalic.ttf / Humana Sans Md ITC TT Medium.ttf / Humana Sans Md ITC TT MediumIta.ttf / Humana Serif Md ITC TT MedIta.ttf / Humana Serif Md ITC TT Medium.ttf / JacobyCondICGBlack.otf / JacobyICG-Black.otf / JacobyICG-Light.otf / JANIHB_.TTF / JANIHB__.TTF / LEVIBRUSH.TTF / mariaholiced.ttf / MyriadPro-Cond.otf / Profile-Medium.otf / Profile-Regular.otf / Swiss 721 SWA.ttf / ABSCI___.TTF / ABSCIB__.TTF / AGaramondPro-Bold.otf / AGaramondPro-Semibold.otf / BordeauxScriptPlain.otf / Century Holic.ttf

Video
ID                                       : 1
Format                                   : AVC
Format/Info                              : Advanced Video Codec
Format profile                           : High@L5.1
Format settings, CABAC                   : Yes
Format settings, ReFrames                : 9 frames
Codec ID                                 : V_MPEG4/ISO/AVC
Duration                                 : 23mn 41s
Bit rate                                 : 1 000 Kbps
Width                                    : 848 pixels
Height                                   : 480 pixels
Display aspect ratio                     : 16:9
Frame rate mode                          : Constant
Frame rate                               : 23.976 fps
Color space                              : YUV
Chroma subsampling                       : 4:2:0
Bit depth                                : 8 bits
Scan type                                : Progressive
Bits/(Pixel*Frame)                       : 0.102
Stream size                              : 168 MiB (87%)
Title                                    : Maria+Holic 09
Writing library                          : x264 core 67 r1120M 8544346
Encoding settings                        : cabac=1 / ref=9 / deblock=1:1:0 / analyse=0x3:0x113 / me=umh / subme=9 / psy_rd=1.0:0.0 / mixed_ref=1 / me_range=24 / chroma_me=1 / trellis=2 / 8x8dct=1 / cqm=0 / deadzone=21,11 / chroma_qp_offset=-2 / threads=6 / nr=0 / decimate=1 / mbaff=0 / bframes=6 / b_pyramid=1 / b_adapt=2 / b_bias=0 / direct=3 / wpredb=1 / keyint=250 / keyint_min=25 / scenecut=40 / rc=2pass / bitrate=1000 / ratetol=3.0 / qcomp=0.60 / qpmin=10 / qpmax=51 / qpstep=4 / cplxblur=20.0 / qblur=0.5 / ip_ratio=1.40 / pb_ratio=1.30 / aq=1:1.00
Default                                  : Yes
Forced                                   : No

Audio
ID                                       : 2
Format                                   : Vorbis
Format settings, Floor                   : 1
Codec ID                                 : A_VORBIS
Duration                                 : 23mn 41s
Bit rate mode                            : Variable
Bit rate                                 : 128 Kbps
Channel(s)                               : 2 channels
Sampling rate                            : 48.0 KHz
Compression mode                         : Lossy
Stream size                              : 21.7 MiB (11%)
Title                                    : 2.0 Vorbis
Writing library                          : aoTuV b5c  (UTC 2008-12-15)
Language                                 : Japanese
Default                                  : Yes
Forced                                   : No

Text
ID                                       : 3
Format                                   : ASS
Codec ID                                 : S_TEXT/ASS
Codec ID/Info                            : Advanced Sub Station Alpha
Compression mode                         : Lossless
Title                                    : ASS
Language                                 : English
Default                                  : Yes
Forced                                   : No

Menu
00:00:00.000                             : :Prologue
00:00:35.869                             : :OP - Guitar Maid~
00:01:58.744                             : :The Tainted Virgin Mary - Second Half
00:13:37.942                             : :Towards the boundary of delusion
00:18:21.934                             : :ED - Maria+Holic for the NES.
00:19:51.899                             : :Epilogue
00:23:19.982                             : :Omake
00:23:34.872                             : :Watch the Next Episode!

Other Files in this Torrent
[gg]_Maria+Holic_-_09_[53A50E86].mkv
beta
Anime DDL+NZB mirror
Current Time: 08/08/2022 09:48



About/FAQs

Discord