Arc 06 Hanamonogatari/[OtakuMura] Hanamonogatari - OP [BD][720p].mp4


File Size29.35 MB (30,778,427 bytes)
DownloadGo4Up | Jheberg | MultiUp | Sendspace | ShareBeast | SolidFiles | UsersFiles
HashesCRC32: E49FECAB, MD5: 1ABA8656AC7409DB05FBD2072D7A533B, SHA1: 340DEDDC4B5AB52B8880FEB94DBA4A7328D65204, SHA256: 853EDE204995063A1A5D3A1419AC3FF9D7DF52B48DDBC255DC67DE2B2C3BE650, ED2K: DF8A7115C8A954CDF95EAF1003E0300A
Screenshots
screenshotscreenshot
Additional Info
General
Complete name                            : [OtakuMura] Hanamonogatari - OP [BD][720p].mp4
Format                                   : MPEG-4
Format profile                           : Base Media
Codec ID                                 : isom
File size                                : 29.4 MiB
Duration                                 : 1mn 30s
Overall bit rate mode                    : Variable
Overall bit rate                         : 2 731 Kbps
Encoded date                             : UTC 2015-05-03 07:55:44
Tagged date                              : UTC 2015-05-03 07:55:44

Video
ID                                       : 1
Format                                   : AVC
Format/Info                              : Advanced Video Codec
Format profile                           : High 10@L3.1
Format settings, CABAC                   : Yes
Format settings, ReFrames                : 5 frames
Codec ID                                 : avc1
Codec ID/Info                            : Advanced Video Coding
Duration                                 : 1mn 30s
Bit rate                                 : 2 599 Kbps
Maximum bit rate                         : 9 282 Kbps
Width                                    : 1 280 pixels
Height                                   : 720 pixels
Display aspect ratio                     : 16:9
Frame rate mode                          : Variable
Frame rate                               : 23.976 fps
Minimum frame rate                       : 23.810 fps
Maximum frame rate                       : 24.390 fps
Color space                              : YUV
Chroma subsampling                       : 4:2:0
Bit depth                                : 10 bits
Scan type                                : Progressive
Bits/(Pixel*Frame)                       : 0.118
Stream size                              : 27.9 MiB (95%)
Writing library                          : x264 core 129 r2245 bc13772
Encoding settings                        : cabac=1 / ref=5 / deblock=1:0:0 / analyse=0x3:0x113 / me=hex / subme=7 / psy=1 / psy_rd=1.00:0.00 / mixed_ref=1 / me_range=16 / chroma_me=1 / trellis=1 / 8x8dct=1 / cqm=0 / deadzone=21,11 / fast_pskip=1 / chroma_qp_offset=-2 / threads=12 / lookahead_threads=2 / sliced_threads=0 / nr=0 / decimate=1 / interlaced=0 / bluray_compat=0 / constrained_intra=0 / bframes=5 / b_pyramid=2 / b_adapt=1 / b_bias=0 / direct=1 / weightb=1 / open_gop=0 / weightp=2 / keyint=250 / keyint_min=23 / scenecut=40 / intra_refresh=0 / rc_lookahead=40 / rc=crf / mbtree=1 / crf=20.0 / qcomp=0.60 / qpmin=0 / qpmax=81 / qpstep=4 / ip_ratio=1.40 / aq=1:1.00
Encoded date                             : UTC 2015-05-03 07:54:29
Tagged date                              : UTC 2015-05-03 07:55:45

Audio
ID                                       : 2
Format                                   : AAC
Format/Info                              : Advanced Audio Codec
Format profile                           : LC
Codec ID                                 : 40
Duration                                 : 1mn 30s
Bit rate mode                            : Variable
Bit rate                                 : 128 Kbps
Maximum bit rate                         : 135 Kbps
Channel(s)                               : 2 channels
Channel positions                        : Front: L R
Sampling rate                            : 48.0 KHz
Compression mode                         : Lossy
Stream size                              : 1.38 MiB (5%)
Title                                    : 2.0 FLAC
Language                                 : Japanese
Encoded date                             : UTC 2015-05-03 07:55:45
Tagged date                              : UTC 2015-05-03 07:55:45

Other Files in this Torrent
Arc 06 Hanamonogatari/[OtakuMura] Hanamonogatari - OP [BD][720p].mp4
beta
Anime DDL+NZB mirror
Current Time: 29/05/2024 12:17



About/FAQs

Discord