Arc 05 Koimonogatari/[OtakuMura] Koimonogatari - 06 [BD][720p].mp4


File Size309.8 MB (324,815,139 bytes)
DownloadGo4Up | Jheberg | MultiUp | SolidFiles | UsersFiles
Sendspace: Part1, Part2
ShareBeast: Part1, Part2
HashesCRC32: 67183715, MD5: 56D743DD43D22FB26CFB9A2CC2E27658, SHA1: 2A07F159A3ED9B5CB390489E6B7A7B7432DC6938, SHA256: 2157734B34BE825CB1C02B3803CA24F5342EC61C2DF450B7064240093697D068, ED2K: 904D2CEE1BE5FD9826C8ADEB77892671
Screenshots
screenshotscreenshotscreenshotscreenshotscreenshot
Additional Info
General
Complete name                            : [OtakuMura] Koimonogatari - 06 [BD][720p].mp4
Format                                   : MPEG-4
Format profile                           : Base Media
Codec ID                                 : isom
File size                                : 310 MiB
Duration                                 : 24mn 53s
Overall bit rate mode                    : Variable
Overall bit rate                         : 1 740 Kbps
Encoded date                             : UTC 2015-05-03 10:42:35
Tagged date                              : UTC 2015-05-03 10:42:35

Video
ID                                       : 1
Format                                   : AVC
Format/Info                              : Advanced Video Codec
Format profile                           : High 10@L3.1
Format settings, CABAC                   : Yes
Format settings, ReFrames                : 5 frames
Codec ID                                 : avc1
Codec ID/Info                            : Advanced Video Coding
Duration                                 : 24mn 53s
Bit rate                                 : 1 606 Kbps
Maximum bit rate                         : 11.8 Mbps
Width                                    : 1 280 pixels
Height                                   : 720 pixels
Display aspect ratio                     : 16:9
Frame rate mode                          : Variable
Frame rate                               : 23.976 fps
Minimum frame rate                       : 23.810 fps
Maximum frame rate                       : 24.390 fps
Color space                              : YUV
Chroma subsampling                       : 4:2:0
Bit depth                                : 10 bits
Scan type                                : Progressive
Bits/(Pixel*Frame)                       : 0.073
Stream size                              : 286 MiB (92%)
Writing library                          : x264 core 129 r2245 bc13772
Encoding settings                        : cabac=1 / ref=5 / deblock=1:0:0 / analyse=0x3:0x113 / me=hex / subme=7 / psy=1 / psy_rd=1.00:0.00 / mixed_ref=1 / me_range=16 / chroma_me=1 / trellis=1 / 8x8dct=1 / cqm=0 / deadzone=21,11 / fast_pskip=1 / chroma_qp_offset=-2 / threads=12 / lookahead_threads=2 / sliced_threads=0 / nr=0 / decimate=1 / interlaced=0 / bluray_compat=0 / constrained_intra=0 / bframes=5 / b_pyramid=2 / b_adapt=1 / b_bias=0 / direct=1 / weightb=1 / open_gop=0 / weightp=2 / keyint=250 / keyint_min=23 / scenecut=40 / intra_refresh=0 / rc_lookahead=40 / rc=crf / mbtree=1 / crf=20.0 / qcomp=0.60 / qpmin=0 / qpmax=81 / qpstep=4 / ip_ratio=1.40 / aq=1:1.00
Encoded date                             : UTC 2015-05-03 10:30:49
Tagged date                              : UTC 2015-05-03 10:42:39

Audio
ID                                       : 2
Format                                   : AAC
Format/Info                              : Advanced Audio Codec
Format profile                           : LC
Codec ID                                 : 40
Duration                                 : 24mn 53s
Bit rate mode                            : Variable
Bit rate                                 : 128 Kbps
Maximum bit rate                         : 136 Kbps
Channel(s)                               : 2 channels
Channel positions                        : Front: L R
Sampling rate                            : 48.0 KHz
Compression mode                         : Lossy
Stream size                              : 22.8 MiB (7%)
Title                                    : 2.0 FLAC
Language                                 : Japanese
Encoded date                             : UTC 2015-05-03 10:42:38
Tagged date                              : UTC 2015-05-03 10:42:39

Other Files in this Torrent
Arc 05 Koimonogatari/[OtakuMura] Koimonogatari - 06 [BD][720p].mp4
beta
Anime DDL+NZB mirror
Current Time: 29/05/2024 14:59



About/FAQs

Discord