Arc 01 Nekomonogatari Shiro/[OtakuMura] Nekomonogatari Shiro - 04 [BD][720p].mp4


File Size137.2 MB (143,892,882 bytes)
DownloadGo4Up | Jheberg | MultiUp | Sendspace | ShareBeast | SolidFiles | UsersFiles
HashesCRC32: 9FEA7C1D, MD5: 6B6D199F50F407E34F04158843059E1D, SHA1: 150FA071A01B56C6821A4E7794B6C1AE1043DE80, SHA256: 5CC277FAED5C36E58B648B548BCEDB4AC641FF54030DCEAD99CB270472250438, ED2K: 60CD51A1F19D905DB9591C704E7B8E13
Screenshots
screenshotscreenshotscreenshotscreenshotscreenshot
Additional Info
General
Complete name                            : [OtakuMura] Nekomonogatari Shiro - 04 [BD][720p].mp4
Format                                   : MPEG-4
Format profile                           : Base Media
Codec ID                                 : isom
File size                                : 137 MiB
Duration                                 : 23mn 27s
Overall bit rate mode                    : Variable
Overall bit rate                         : 818 Kbps
Encoded date                             : UTC 2015-05-02 13:52:43
Tagged date                              : UTC 2015-05-02 13:52:43

Video
ID                                       : 1
Format                                   : AVC
Format/Info                              : Advanced Video Codec
Format profile                           : High 10@L3.1
Format settings, CABAC                   : Yes
Format settings, ReFrames                : 5 frames
Codec ID                                 : avc1
Codec ID/Info                            : Advanced Video Coding
Duration                                 : 23mn 27s
Bit rate                                 : 684 Kbps
Maximum bit rate                         : 13.2 Mbps
Width                                    : 1 280 pixels
Height                                   : 720 pixels
Display aspect ratio                     : 16:9
Frame rate mode                          : Variable
Frame rate                               : 23.976 fps
Minimum frame rate                       : 23.810 fps
Maximum frame rate                       : 24.390 fps
Color space                              : YUV
Chroma subsampling                       : 4:2:0
Bit depth                                : 10 bits
Scan type                                : Progressive
Bits/(Pixel*Frame)                       : 0.031
Stream size                              : 115 MiB (84%)
Writing library                          : x264 core 129 r2245 bc13772
Encoding settings                        : cabac=1 / ref=5 / deblock=1:0:0 / analyse=0x3:0x113 / me=hex / subme=7 / psy=1 / psy_rd=1.00:0.00 / mixed_ref=1 / me_range=16 / chroma_me=1 / trellis=1 / 8x8dct=1 / cqm=0 / deadzone=21,11 / fast_pskip=1 / chroma_qp_offset=-2 / threads=12 / lookahead_threads=2 / sliced_threads=0 / nr=0 / decimate=1 / interlaced=0 / bluray_compat=0 / constrained_intra=0 / bframes=5 / b_pyramid=2 / b_adapt=1 / b_bias=0 / direct=1 / weightb=1 / open_gop=0 / weightp=2 / keyint=250 / keyint_min=23 / scenecut=40 / intra_refresh=0 / rc_lookahead=40 / rc=crf / mbtree=1 / crf=20.0 / qcomp=0.60 / qpmin=0 / qpmax=81 / qpstep=4 / ip_ratio=1.40 / aq=1:1.00
Encoded date                             : UTC 2015-05-02 13:43:09
Tagged date                              : UTC 2015-05-02 13:52:47

Audio
ID                                       : 2
Format                                   : AAC
Format/Info                              : Advanced Audio Codec
Format profile                           : LC
Codec ID                                 : 40
Duration                                 : 23mn 27s
Bit rate mode                            : Variable
Bit rate                                 : 128 Kbps
Maximum bit rate                         : 136 Kbps
Channel(s)                               : 2 channels
Channel positions                        : Front: L R
Sampling rate                            : 48.0 KHz
Compression mode                         : Lossy
Stream size                              : 21.5 MiB (16%)
Title                                    : 2.0 FLAC
Language                                 : Japanese
Encoded date                             : UTC 2015-05-02 13:52:46
Tagged date                              : UTC 2015-05-02 13:52:47

Other Files in this Torrent
Arc 01 Nekomonogatari Shiro/[OtakuMura] Nekomonogatari Shiro - 04 [BD][720p].mp4
beta
Anime DDL+NZB mirror
Current Time: 19/05/2024 07:16



About/FAQs

Discord