Arc 01 Nekomonogatari Shiro/[OtakuMura] Nekomonogatari Shiro - ED [BD][720p].mp4


File Size44.50 MB (46,657,896 bytes)
DownloadGo4Up | Jheberg | MultiUp | Sendspace | ShareBeast | SolidFiles | UsersFiles
HashesCRC32: 5D533304, MD5: 8B4433F88E97BF7DEF2D0D63472585C7, SHA1: 9A53D6056C81BED0066E2568B8AF2F60ED5B7E5E, SHA256: 0301AD231FCA620CA6890EF27AB767CCB5B1CC34F62A687DCCBAFD7FD234433A, ED2K: C15FFB753B9E3E13FE657B951C816BA5
Screenshots
screenshotscreenshot
Additional Info
General
Complete name                            : [OtakuMura] Nekomonogatari Shiro - ED [BD][720p].mp4
Format                                   : MPEG-4
Format profile                           : Base Media
Codec ID                                 : isom
File size                                : 44.5 MiB
Duration                                 : 1mn 30s
Overall bit rate mode                    : Variable
Overall bit rate                         : 4 140 Kbps
Encoded date                             : UTC 2015-05-02 14:07:11
Tagged date                              : UTC 2015-05-02 14:07:11

Video
ID                                       : 1
Format                                   : AVC
Format/Info                              : Advanced Video Codec
Format profile                           : High 10@L3.1
Format settings, CABAC                   : Yes
Format settings, ReFrames                : 5 frames
Codec ID                                 : avc1
Codec ID/Info                            : Advanced Video Coding
Duration                                 : 1mn 30s
Bit rate                                 : 4 009 Kbps
Maximum bit rate                         : 7 155 Kbps
Width                                    : 1 280 pixels
Height                                   : 720 pixels
Display aspect ratio                     : 16:9
Frame rate mode                          : Variable
Frame rate                               : 23.976 fps
Minimum frame rate                       : 23.810 fps
Maximum frame rate                       : 24.390 fps
Color space                              : YUV
Chroma subsampling                       : 4:2:0
Bit depth                                : 10 bits
Scan type                                : Progressive
Bits/(Pixel*Frame)                       : 0.181
Stream size                              : 43.1 MiB (97%)
Writing library                          : x264 core 129 r2245 bc13772
Encoding settings                        : cabac=1 / ref=5 / deblock=1:0:0 / analyse=0x3:0x113 / me=hex / subme=7 / psy=1 / psy_rd=1.00:0.00 / mixed_ref=1 / me_range=16 / chroma_me=1 / trellis=1 / 8x8dct=1 / cqm=0 / deadzone=21,11 / fast_pskip=1 / chroma_qp_offset=-2 / threads=12 / lookahead_threads=2 / sliced_threads=0 / nr=0 / decimate=1 / interlaced=0 / bluray_compat=0 / constrained_intra=0 / bframes=5 / b_pyramid=2 / b_adapt=1 / b_bias=0 / direct=1 / weightb=1 / open_gop=0 / weightp=2 / keyint=250 / keyint_min=23 / scenecut=40 / intra_refresh=0 / rc_lookahead=40 / rc=crf / mbtree=1 / crf=20.0 / qcomp=0.60 / qpmin=0 / qpmax=81 / qpstep=4 / ip_ratio=1.40 / aq=1:1.00
Encoded date                             : UTC 2015-05-02 14:05:45
Tagged date                              : UTC 2015-05-02 14:07:11

Audio
ID                                       : 2
Format                                   : AAC
Format/Info                              : Advanced Audio Codec
Format profile                           : LC
Codec ID                                 : 40
Duration                                 : 1mn 30s
Bit rate mode                            : Variable
Bit rate                                 : 128 Kbps
Maximum bit rate                         : 136 Kbps
Channel(s)                               : 2 channels
Channel positions                        : Front: L R
Sampling rate                            : 48.0 KHz
Compression mode                         : Lossy
Stream size                              : 1.38 MiB (3%)
Title                                    : 2.0 FLAC
Language                                 : Japanese
Encoded date                             : UTC 2015-05-02 14:07:11
Tagged date                              : UTC 2015-05-02 14:07:11

Other Files in this Torrent
Arc 01 Nekomonogatari Shiro/[OtakuMura] Nekomonogatari Shiro - ED [BD][720p].mp4
beta
Anime DDL+NZB mirror
Current Time: 18/06/2024 15:57



About/FAQs

Discord