Arc 03 Otorimonogatari/[OtakuMura] Otorimonogatari - 04 [BD][720p].mp4


File Size212.0 MB (222,255,760 bytes)
DownloadGo4Up | Jheberg | MultiUp | Sendspace | SolidFiles | UsersFiles
ShareBeast: Part1, Part2
HashesCRC32: 9DC4A70A, MD5: FADDB1E761D62BDF7009E4DBE5BF9D85, SHA1: 075C29EE65945B69BAFC8F4A1B96209A1AB49F44, SHA256: 0F2C5D4F869A9C0093DC9B5F312DF9015C23C7969AACB755B612DB8B9746F5EB, ED2K: 3CAC74C17741C495491AE3ACA8B7BB5C
Screenshots
screenshotscreenshotscreenshotscreenshotscreenshot
Additional Info
General
Complete name                            : [OtakuMura] Otorimonogatari - 04 [BD][720p].mp4
Format                                   : MPEG-4
Format profile                           : Base Media
Codec ID                                 : isom
File size                                : 212 MiB
Duration                                 : 23mn 31s
Overall bit rate mode                    : Variable
Overall bit rate                         : 1 260 Kbps
Encoded date                             : UTC 2015-05-03 05:13:16
Tagged date                              : UTC 2015-05-03 05:13:16

Video
ID                                       : 1
Format                                   : AVC
Format/Info                              : Advanced Video Codec
Format profile                           : High 10@L3.1
Format settings, CABAC                   : Yes
Format settings, ReFrames                : 5 frames
Codec ID                                 : avc1
Codec ID/Info                            : Advanced Video Coding
Duration                                 : 23mn 31s
Bit rate                                 : 1 126 Kbps
Maximum bit rate                         : 9 556 Kbps
Width                                    : 1 280 pixels
Height                                   : 720 pixels
Display aspect ratio                     : 16:9
Frame rate mode                          : Variable
Frame rate                               : 23.976 fps
Minimum frame rate                       : 23.810 fps
Maximum frame rate                       : 24.390 fps
Color space                              : YUV
Chroma subsampling                       : 4:2:0
Bit depth                                : 10 bits
Scan type                                : Progressive
Bits/(Pixel*Frame)                       : 0.051
Stream size                              : 189 MiB (89%)
Writing library                          : x264 core 129 r2245 bc13772
Encoding settings                        : cabac=1 / ref=5 / deblock=1:0:0 / analyse=0x3:0x113 / me=hex / subme=7 / psy=1 / psy_rd=1.00:0.00 / mixed_ref=1 / me_range=16 / chroma_me=1 / trellis=1 / 8x8dct=1 / cqm=0 / deadzone=21,11 / fast_pskip=1 / chroma_qp_offset=-2 / threads=12 / lookahead_threads=2 / sliced_threads=0 / nr=0 / decimate=1 / interlaced=0 / bluray_compat=0 / constrained_intra=0 / bframes=5 / b_pyramid=2 / b_adapt=1 / b_bias=0 / direct=1 / weightb=1 / open_gop=0 / weightp=2 / keyint=250 / keyint_min=23 / scenecut=40 / intra_refresh=0 / rc_lookahead=40 / rc=crf / mbtree=1 / crf=20.0 / qcomp=0.60 / qpmin=0 / qpmax=81 / qpstep=4 / ip_ratio=1.40 / aq=1:1.00
Encoded date                             : UTC 2015-05-03 05:02:05
Tagged date                              : UTC 2015-05-03 05:13:19

Audio
ID                                       : 2
Format                                   : AAC
Format/Info                              : Advanced Audio Codec
Format profile                           : LC
Codec ID                                 : 40
Duration                                 : 23mn 31s
Bit rate mode                            : Variable
Bit rate                                 : 128 Kbps
Maximum bit rate                         : 135 Kbps
Channel(s)                               : 2 channels
Channel positions                        : Front: L R
Sampling rate                            : 48.0 KHz
Compression mode                         : Lossy
Stream size                              : 21.5 MiB (10%)
Title                                    : 2.0 FLAC
Language                                 : Japanese
Encoded date                             : UTC 2015-05-03 05:13:18
Tagged date                              : UTC 2015-05-03 05:13:19

Other Files in this Torrent
Arc 03 Otorimonogatari/[OtakuMura] Otorimonogatari - 04 [BD][720p].mp4
beta
Anime DDL+NZB mirror
Current Time: 19/05/2024 07:35



About/FAQs

Discord