Arc 05 Koimonogatari/[OtakuMura] Koimonogatari - 02 [BD][720p].mp4


File Size118.6 MB (124,325,661 bytes)
DownloadGo4Up | Jheberg | MultiUp | Sendspace | ShareBeast | SolidFiles | UsersFiles
HashesCRC32: 015D9214, MD5: E5172AC745E785FAC81FD59DE35819CF, SHA1: 6CB5D57AE3F66FCC4EAE750B70D60EF348485D70, SHA256: CB6BB084AAD8CF057690F6D202EF3D5DF3DBC34299B0D653BEBC8913D6F1A7A6, ED2K: 8E5A0D285001A69DE4038D29D26FC95C
Screenshots
screenshotscreenshotscreenshotscreenshotscreenshot
Additional Info
General
Complete name                            : [OtakuMura] Koimonogatari - 02 [BD][720p].mp4
Format                                   : MPEG-4
Format profile                           : Base Media
Codec ID                                 : isom
File size                                : 119 MiB
Duration                                 : 23mn 16s
Overall bit rate mode                    : Variable
Overall bit rate                         : 712 Kbps
Encoded date                             : UTC 2015-05-03 06:25:10
Tagged date                              : UTC 2015-05-03 06:25:10

Video
ID                                       : 1
Format                                   : AVC
Format/Info                              : Advanced Video Codec
Format profile                           : High 10@L3.1
Format settings, CABAC                   : Yes
Format settings, ReFrames                : 5 frames
Codec ID                                 : avc1
Codec ID/Info                            : Advanced Video Coding
Duration                                 : 23mn 16s
Bit rate                                 : 578 Kbps
Maximum bit rate                         : 3 053 Kbps
Width                                    : 1 280 pixels
Height                                   : 720 pixels
Display aspect ratio                     : 16:9
Frame rate mode                          : Variable
Frame rate                               : 23.976 fps
Minimum frame rate                       : 23.810 fps
Maximum frame rate                       : 24.390 fps
Color space                              : YUV
Chroma subsampling                       : 4:2:0
Bit depth                                : 10 bits
Scan type                                : Progressive
Bits/(Pixel*Frame)                       : 0.026
Stream size                              : 96.2 MiB (81%)
Writing library                          : x264 core 129 r2245 bc13772
Encoding settings                        : cabac=1 / ref=5 / deblock=1:0:0 / analyse=0x3:0x113 / me=hex / subme=7 / psy=1 / psy_rd=1.00:0.00 / mixed_ref=1 / me_range=16 / chroma_me=1 / trellis=1 / 8x8dct=1 / cqm=0 / deadzone=21,11 / fast_pskip=1 / chroma_qp_offset=-2 / threads=12 / lookahead_threads=2 / sliced_threads=0 / nr=0 / decimate=1 / interlaced=0 / bluray_compat=0 / constrained_intra=0 / bframes=5 / b_pyramid=2 / b_adapt=1 / b_bias=0 / direct=1 / weightb=1 / open_gop=0 / weightp=2 / keyint=250 / keyint_min=23 / scenecut=40 / intra_refresh=0 / rc_lookahead=40 / rc=crf / mbtree=1 / crf=20.0 / qcomp=0.60 / qpmin=0 / qpmax=81 / qpstep=4 / ip_ratio=1.40 / aq=1:1.00
Encoded date                             : UTC 2015-05-03 06:16:49
Tagged date                              : UTC 2015-05-03 06:25:14

Audio
ID                                       : 2
Format                                   : AAC
Format/Info                              : Advanced Audio Codec
Format profile                           : LC
Codec ID                                 : 40
Duration                                 : 23mn 16s
Bit rate mode                            : Variable
Bit rate                                 : 128 Kbps
Maximum bit rate                         : 133 Kbps
Channel(s)                               : 2 channels
Channel positions                        : Front: L R
Sampling rate                            : 48.0 KHz
Compression mode                         : Lossy
Stream size                              : 21.3 MiB (18%)
Title                                    : 2.0 FLAC
Language                                 : Japanese
Encoded date                             : UTC 2015-05-03 06:25:13
Tagged date                              : UTC 2015-05-03 06:25:14

Other Files in this Torrent
Arc 05 Koimonogatari/[OtakuMura] Koimonogatari - 02 [BD][720p].mp4
beta
Anime DDL+NZB mirror
Current Time: 19/05/2024 07:51



About/FAQs

Discord