Arc 02 Kabukimonogatari/[OtakuMura] Kabukimonogatari - 03 [BD][720p].mp4


File Size170.6 MB (178,836,544 bytes)
DownloadGo4Up | Jheberg | MultiUp | Sendspace | ShareBeast | SolidFiles | UsersFiles
HashesCRC32: 91B730B7, MD5: 991D83332413FD72578965F131E1DCA1, SHA1: C7FC565F7A5F38B6AE3B0F647E3BB8690C64EB7A, SHA256: 123C646C9EC9144C3D80C47C67671A5D34DB7603346EE3DDC4CD562941C91495, ED2K: E9034061B37CE9C0A6418C84A12B55A9
Screenshots
screenshotscreenshotscreenshotscreenshotscreenshot
Additional Info
General
Complete name                            : [OtakuMura] Kabukimonogatari - 03 [BD][720p].mp4
Format                                   : MPEG-4
Format profile                           : Base Media
Codec ID                                 : isom
File size                                : 171 MiB
Duration                                 : 22mn 0s
Overall bit rate mode                    : Variable
Overall bit rate                         : 1 084 Kbps
Encoded date                             : UTC 2015-05-02 16:15:04
Tagged date                              : UTC 2015-05-02 16:15:04

Video
ID                                       : 1
Format                                   : AVC
Format/Info                              : Advanced Video Codec
Format profile                           : High 10@L3.1
Format settings, CABAC                   : Yes
Format settings, ReFrames                : 5 frames
Codec ID                                 : avc1
Codec ID/Info                            : Advanced Video Coding
Duration                                 : 22mn 0s
Bit rate                                 : 950 Kbps
Maximum bit rate                         : 12.9 Mbps
Width                                    : 1 280 pixels
Height                                   : 720 pixels
Display aspect ratio                     : 16:9
Frame rate mode                          : Variable
Frame rate                               : 23.976 fps
Minimum frame rate                       : 23.810 fps
Maximum frame rate                       : 24.390 fps
Color space                              : YUV
Chroma subsampling                       : 4:2:0
Bit depth                                : 10 bits
Scan type                                : Progressive
Bits/(Pixel*Frame)                       : 0.043
Stream size                              : 149 MiB (88%)
Writing library                          : x264 core 129 r2245 bc13772
Encoding settings                        : cabac=1 / ref=5 / deblock=1:0:0 / analyse=0x3:0x113 / me=hex / subme=7 / psy=1 / psy_rd=1.00:0.00 / mixed_ref=1 / me_range=16 / chroma_me=1 / trellis=1 / 8x8dct=1 / cqm=0 / deadzone=21,11 / fast_pskip=1 / chroma_qp_offset=-2 / threads=12 / lookahead_threads=2 / sliced_threads=0 / nr=0 / decimate=1 / interlaced=0 / bluray_compat=0 / constrained_intra=0 / bframes=5 / b_pyramid=2 / b_adapt=1 / b_bias=0 / direct=1 / weightb=1 / open_gop=0 / weightp=2 / keyint=250 / keyint_min=23 / scenecut=40 / intra_refresh=0 / rc_lookahead=40 / rc=crf / mbtree=1 / crf=20.0 / qcomp=0.60 / qpmin=0 / qpmax=81 / qpstep=4 / ip_ratio=1.40 / aq=1:1.00
Encoded date                             : UTC 2015-05-02 16:05:02
Tagged date                              : UTC 2015-05-02 16:15:07

Audio
ID                                       : 2
Format                                   : AAC
Format/Info                              : Advanced Audio Codec
Format profile                           : LC
Codec ID                                 : 40
Duration                                 : 22mn 0s
Bit rate mode                            : Variable
Bit rate                                 : 128 Kbps
Maximum bit rate                         : 134 Kbps
Channel(s)                               : 2 channels
Channel positions                        : Front: L R
Sampling rate                            : 48.0 KHz
Compression mode                         : Lossy
Stream size                              : 20.1 MiB (12%)
Title                                    : 2.0 FLAC
Language                                 : Japanese
Encoded date                             : UTC 2015-05-02 16:15:07
Tagged date                              : UTC 2015-05-02 16:15:07

Other Files in this Torrent
Arc 02 Kabukimonogatari/[OtakuMura] Kabukimonogatari - 03 [BD][720p].mp4
beta
Anime DDL+NZB mirror
Current Time: 29/05/2024 14:33



About/FAQs

Discord