Arc 04 Onimonogatari/[OtakuMura] Onimonogatari - 01 [BD][720p].mp4


File Size216.2 MB (226,709,905 bytes)
DownloadGo4Up | Jheberg | MultiUp | Sendspace | SolidFiles | UsersFiles
ShareBeast: Part1, Part2
HashesCRC32: D8044097, MD5: 3D02424BC7EC365BB99EC0724ABF4C44, SHA1: 6D2D287A362AC5A4B47916BF71AB66097EB56C54, SHA256: 2F297A70007BB7800C5626FBA3D88B8D692256A33DEE8C29FE2CCA1AFA355004, ED2K: 0D83FDACCC04ADC605B6648C34E45989
Screenshots
screenshotscreenshotscreenshotscreenshotscreenshot
Additional Info
General
Complete name                            : [OtakuMura] Onimonogatari - 01 [BD][720p].mp4
Format                                   : MPEG-4
Format profile                           : Base Media
Codec ID                                 : isom
File size                                : 216 MiB
Duration                                 : 24mn 31s
Overall bit rate mode                    : Variable
Overall bit rate                         : 1 233 Kbps
Encoded date                             : UTC 2015-05-03 05:27:39
Tagged date                              : UTC 2015-05-03 05:27:39

Video
ID                                       : 1
Format                                   : AVC
Format/Info                              : Advanced Video Codec
Format profile                           : High 10@L3.1
Format settings, CABAC                   : Yes
Format settings, ReFrames                : 5 frames
Codec ID                                 : avc1
Codec ID/Info                            : Advanced Video Coding
Duration                                 : 24mn 31s
Bit rate                                 : 1 099 Kbps
Maximum bit rate                         : 11.6 Mbps
Width                                    : 1 280 pixels
Height                                   : 720 pixels
Display aspect ratio                     : 16:9
Frame rate mode                          : Variable
Frame rate                               : 23.976 fps
Minimum frame rate                       : 23.810 fps
Maximum frame rate                       : 24.390 fps
Color space                              : YUV
Chroma subsampling                       : 4:2:0
Bit depth                                : 10 bits
Scan type                                : Progressive
Bits/(Pixel*Frame)                       : 0.050
Stream size                              : 193 MiB (89%)
Writing library                          : x264 core 129 r2245 bc13772
Encoding settings                        : cabac=1 / ref=5 / deblock=1:0:0 / analyse=0x3:0x113 / me=hex / subme=7 / psy=1 / psy_rd=1.00:0.00 / mixed_ref=1 / me_range=16 / chroma_me=1 / trellis=1 / 8x8dct=1 / cqm=0 / deadzone=21,11 / fast_pskip=1 / chroma_qp_offset=-2 / threads=12 / lookahead_threads=2 / sliced_threads=0 / nr=0 / decimate=1 / interlaced=0 / bluray_compat=0 / constrained_intra=0 / bframes=5 / b_pyramid=2 / b_adapt=1 / b_bias=0 / direct=1 / weightb=1 / open_gop=0 / weightp=2 / keyint=250 / keyint_min=23 / scenecut=40 / intra_refresh=0 / rc_lookahead=40 / rc=crf / mbtree=1 / crf=20.0 / qcomp=0.60 / qpmin=0 / qpmax=81 / qpstep=4 / ip_ratio=1.40 / aq=1:1.00
Encoded date                             : UTC 2015-05-03 05:16:36
Tagged date                              : UTC 2015-05-03 05:27:42

Audio
ID                                       : 2
Format                                   : AAC
Format/Info                              : Advanced Audio Codec
Format profile                           : LC
Codec ID                                 : 40
Duration                                 : 24mn 31s
Bit rate mode                            : Variable
Bit rate                                 : 128 Kbps
Maximum bit rate                         : 136 Kbps
Channel(s)                               : 2 channels
Channel positions                        : Front: L R
Sampling rate                            : 48.0 KHz
Compression mode                         : Lossy
Stream size                              : 22.4 MiB (10%)
Title                                    : 2.0 FLAC
Language                                 : Japanese
Encoded date                             : UTC 2015-05-03 05:27:42
Tagged date                              : UTC 2015-05-03 05:27:42

Other Files in this Torrent
Arc 04 Onimonogatari/[OtakuMura] Onimonogatari - 01 [BD][720p].mp4
beta
Anime DDL+NZB mirror
Current Time: 29/05/2024 15:40



About/FAQs

Discord