File Size567.0 MB (594,504,944 bytes)
DownloadClickNUpload | DownloadGG | GoFile | KrakenFiles | MdiaLoad
MultiUp: Part1
  • BdUpload
  • DownAce
  • Fichier
  • FileCloud
  • Filerio
  • FilesCdn
  • IndiShare
  • Kbagi
  • Turbobit
  • UpToBox
  • Uppit
, Part2
  • BdUpload
  • DownAce
  • Fichier
  • FileCloud
  • Filerio
  • FilesCdn
  • IndiShare
  • Kbagi
  • Turbobit
  • UpToBox
  • Uppit
HashesCRC32: 4D4133D2, MD5: F7A6E5BB5BB09BC513075A1E2157BC4F, SHA1: 0C1169F781CAECFA29C11F32B3E86B4647C36355, SHA256: D6499BEBEEA4121EEEFF92BCCC7493D4FAECF6942BAB4451274B4CF0428AA0F2, ED2K: 89A3CD0A931C67C6E2FA0CDFA77BC41F
Screenshots
screenshotscreenshotscreenshotscreenshotscreenshot
SubtitlesAll Attachments | SubsPlus+ [eng, ASS]
Additional Info
General
Unique ID                                : 80970601803107221529510880746925790764 (0x3CEA5EE3C14984C68AC4AA957BDD162C)
Complete name                            : [SubsPlus+] Kubo Won't Let Me Be Invisible - S01E12 (WEB 1080p) [4D4133D2].mkv
Format                                   : Matroska
Format version                           : Version 4
File size                                : 567 MiB
Duration                                 : 23 min 40 s
Overall bit rate                         : 3 349 kb/s
Movie name                               : [SubsPlus+] Kubo Won't Let Me Be Invisible - S01E12
Encoded date                             : UTC 2023-09-07 04:33:51
Writing application                      : mkvmerge v79.0 ('Funeral Pyres') 64-bit
Writing library                          : libebml v1.4.4 + libmatroska v1.7.1
Attachments                              : SPOverrideF-Regular.otf / SPOverrideF-Italics.otf / Sub-Alegreya-Bold.otf / Swis721_BT_Bold.ttf / MeadBold.ttf / calibrib_0.ttf / calibril_0.ttf / BakerSignetBT.ttf / SqueakyChalkSound.ttf / AdLibBT.ttf / Tonic Regular.ttf / FinkSans Regular.ttf / BRADHITC.ttf / arial.ttf / NotoSans-Medium.ttf

Video
ID                                       : 1
Format                                   : AVC
Format/Info                              : Advanced Video Codec
Format profile                           : High@L4
Format settings                          : CABAC / 4 Ref Frames
Format settings, CABAC                   : Yes
Format settings, Reference frames        : 4 frames
Codec ID                                 : V_MPEG4/ISO/AVC
Duration                                 : 23 min 40 s
Bit rate mode                            : Constant
Bit rate                                 : 3 099 kb/s
Nominal bit rate                         : 10 000 kb/s
Width                                    : 1 920 pixels
Height                                   : 1 080 pixels
Display aspect ratio                     : 16:9
Frame rate mode                          : Constant
Frame rate                               : 23.976 (24000/1001) FPS
Color space                              : YUV
Chroma subsampling                       : 4:2:0
Bit depth                                : 8 bits
Scan type                                : Progressive
Bits/(Pixel*Frame)                       : 0.062
Stream size                              : 525 MiB (93%)
Default                                  : Yes
Forced                                   : No
Color range                              : Limited
Color primaries                          : BT.709
Transfer characteristics                 : BT.709
Matrix coefficients                      : BT.709

Audio
ID                                       : 2
Format                                   : E-AC-3
Format/Info                              : Enhanced AC-3
Commercial name                          : Dolby Digital Plus
Codec ID                                 : A_EAC3
Duration                                 : 23 min 40 s
Bit rate mode                            : Constant
Bit rate                                 : 224 kb/s
Channel(s)                               : 2 channels
Channel layout                           : L R
Sampling rate                            : 48.0 kHz
Frame rate                               : 31.250 FPS (1536 SPF)
Compression mode                         : Lossy
Stream size                              : 37.9 MiB (7%)
Language                                 : Japanese
Service kind                             : Complete Main
Default                                  : Yes
Forced                                   : No

Text
ID                                       : 3
Format                                   : ASS
Codec ID                                 : S_TEXT/ASS
Codec ID/Info                            : Advanced Sub Station Alpha
Duration                                 : 23 min 36 s
Bit rate                                 : 147 b/s
Count of elements                        : 460
Compression mode                         : Lossless
Stream size                              : 25.5 KiB (0%)
Title                                    : SubsPlus+
Language                                 : English
Default                                  : Yes
Forced                                   : No

Menu
00:00:00.000                             : en:Prologue
00:00:19.999                             : en:Opening
00:01:50.006                             : en:Episode
00:22:01.008                             : en:Ending

Other Files in this Torrent
[SubsPlus+] Kubo Won't Let Me Be Invisible - S01E12 (WEB 1080p) [4D4133D2].mkv
beta
Anime DDL+NZB mirror
Current Time: 19/07/2024 08:04



About/FAQs

Discord