File Size587.1 MB (615,597,445 bytes)
DownloadClickNUpload | DownloadGG | GoFile | KrakenFiles | MdiaLoad
MultiUp: Part1
  • BdUpload
  • DownAce
  • Fichier
  • FileCloud
  • Filerio
  • FilesCdn
  • IndiShare
  • Kbagi
  • Turbobit
  • UpToBox
  • Uppit
, Part2
  • BdUpload
  • DownAce
  • Fichier
  • FileCloud
  • Filerio
  • FilesCdn
  • IndiShare
  • Kbagi
  • Turbobit
  • UpToBox
  • Uppit
HashesCRC32: BA8B6F6C, MD5: 0AD5A22558B095502072ED4D561D64D7, SHA1: 6D094586EC01857592DA7ACA91F263CF9A8CD79C, SHA256: 35C43962D96108C62749DA0D59266547ECF7F444A201FBBFD6B0BFE826EB8874, ED2K: 658B2CFEEFDF44BF12300E50F96400D5
Screenshots
screenshotscreenshotscreenshotscreenshotscreenshot
SubtitlesAll Attachments | SubsPlus+ [eng, ASS]
Additional Info
General
Unique ID                                : 160466881621665005950145937543424647792 (0x78B8CC17E7AB09DC4F782B58F2702270)
Complete name                            : [SubsPlus+] Kubo Won't Let Me Be Invisible - S01E10 (WEB 1080p) [BA8B6F6C].mkv
Format                                   : Matroska
Format version                           : Version 4
File size                                : 587 MiB
Duration                                 : 23 min 40 s
Overall bit rate                         : 3 468 kb/s
Movie name                               : [SubsPlus+] Kubo Won't Let Me Be Invisible - S01E10
Encoded date                             : UTC 2023-09-07 04:18:32
Writing application                      : mkvmerge v79.0 ('Funeral Pyres') 64-bit
Writing library                          : libebml v1.4.4 + libmatroska v1.7.1
Attachments                              : SPOverrideF-Regular.otf / SPOverrideF-Italics.otf / Sub-Alegreya-Bold.otf / Swis721_BT_Bold.ttf / MeadBold.ttf / AdLibRg.ttf / CALIBRIB.TTF / BelweBdBTBold.ttf / joystix.ttf / NotoSans-Medium.ttf

Video
ID                                       : 1
Format                                   : AVC
Format/Info                              : Advanced Video Codec
Format profile                           : High@L4
Format settings                          : CABAC / 4 Ref Frames
Format settings, CABAC                   : Yes
Format settings, Reference frames        : 4 frames
Codec ID                                 : V_MPEG4/ISO/AVC
Duration                                 : 23 min 40 s
Bit rate mode                            : Constant
Bit rate                                 : 3 229 kb/s
Nominal bit rate                         : 10 000 kb/s
Width                                    : 1 920 pixels
Height                                   : 1 080 pixels
Display aspect ratio                     : 16:9
Frame rate mode                          : Constant
Frame rate                               : 23.976 (24000/1001) FPS
Color space                              : YUV
Chroma subsampling                       : 4:2:0
Bit depth                                : 8 bits
Scan type                                : Progressive
Bits/(Pixel*Frame)                       : 0.065
Stream size                              : 547 MiB (93%)
Default                                  : Yes
Forced                                   : No
Color range                              : Limited
Color primaries                          : BT.709
Transfer characteristics                 : BT.709
Matrix coefficients                      : BT.709

Audio
ID                                       : 2
Format                                   : E-AC-3
Format/Info                              : Enhanced AC-3
Commercial name                          : Dolby Digital Plus
Codec ID                                 : A_EAC3
Duration                                 : 23 min 39 s
Bit rate mode                            : Constant
Bit rate                                 : 224 kb/s
Channel(s)                               : 2 channels
Channel layout                           : L R
Sampling rate                            : 48.0 kHz
Frame rate                               : 31.250 FPS (1536 SPF)
Compression mode                         : Lossy
Stream size                              : 37.9 MiB (6%)
Language                                 : Japanese
Service kind                             : Complete Main
Default                                  : Yes
Forced                                   : No

Text
ID                                       : 3
Format                                   : ASS
Codec ID                                 : S_TEXT/ASS
Codec ID/Info                            : Advanced Sub Station Alpha
Duration                                 : 23 min 31 s
Bit rate                                 : 122 b/s
Count of elements                        : 410
Compression mode                         : Lossless
Stream size                              : 21.1 KiB (0%)
Title                                    : SubsPlus+
Language                                 : English
Default                                  : Yes
Forced                                   : No

Menu
00:00:00.000                             : en:Prologue
00:01:55.011                             : en:Opening
00:03:24.976                             : en:Episode
00:22:09.934                             : en:Ending

Other Files in this Torrent
[SubsPlus+] Kubo Won't Let Me Be Invisible - S01E10 (WEB 1080p) [BA8B6F6C].mkv
beta
Anime DDL+NZB mirror
Current Time: 19/07/2024 09:37



About/FAQs

Discord