File Size640.3 MB (671,369,926 bytes)
DownloadClickNUpload | DownloadGG | GoFile | KrakenFiles | MdiaLoad
MultiUp: Part1
  • BdUpload
  • DownAce
  • Fichier
  • FileCloud
  • Filerio
  • FilesCdn
  • IndiShare
  • Kbagi
  • Turbobit
  • UpToBox
  • Uppit
, Part2
  • BdUpload
  • DownAce
  • Fichier
  • FileCloud
  • Filerio
  • FilesCdn
  • IndiShare
  • Kbagi
  • Turbobit
  • UpToBox
  • Uppit
HashesCRC32: 8B09BC65, MD5: FEC6B9B8EE92CBD45F5EDA9D8A6B4EE5, SHA1: 2EBB09C297B9BD6EC4A1EC979CE6FE1D144ACA5E, SHA256: 6DEABC2C37741320D609261AB5F3380FA38B5756C324C3B0D844424FD8C32C10, ED2K: 6EF4913DB369077867DB2902E18E8613
Screenshots
screenshotscreenshotscreenshotscreenshotscreenshot
SubtitlesAll Attachments | SubsPlus+ [eng, ASS]
Additional Info
General
Unique ID                                : 160080834330251345515084557468907115060 (0x786E727E0D810CB9042E5169181C9234)
Complete name                            : [SubsPlus+] Kubo Won't Let Me Be Invisible - S01E01 (WEB 1080p) [8B09BC65].mkv
Format                                   : Matroska
Format version                           : Version 4
File size                                : 640 MiB
Duration                                 : 23 min 40 s
Overall bit rate                         : 3 782 kb/s
Movie name                               : [SubsPlus+] Kubo Won't Let Me Be Invisible - S01E01
Encoded date                             : UTC 2023-09-07 03:07:09
Writing application                      : mkvmerge v79.0 ('Funeral Pyres') 64-bit
Writing library                          : libebml v1.4.4 + libmatroska v1.7.1
Attachments                              : SPOverrideF-Regular.otf / SPOverrideF-Italics.otf / Sub-Alegreya-Bold.otf / Swis721_BT_Bold.ttf / BakerSignetBTRoman.ttf / tahomabd_0.ttf / calibril_0.ttf / MeadBold.ttf / Tonic Regular.ttf / AdLibBT.ttf / TEMPSITC.TTF / unicode.futurab.ttf / BRADHITC.ttf / BelweBdBTBold.ttf / NotoSans-Medium.ttf / timesbd.ttf

Video
ID                                       : 1
Format                                   : AVC
Format/Info                              : Advanced Video Codec
Format profile                           : High@L4
Format settings                          : CABAC / 4 Ref Frames
Format settings, CABAC                   : Yes
Format settings, Reference frames        : 4 frames
Codec ID                                 : V_MPEG4/ISO/AVC
Duration                                 : 23 min 40 s
Bit rate mode                            : Constant
Bit rate                                 : 3 530 kb/s
Nominal bit rate                         : 10 000 kb/s
Width                                    : 1 920 pixels
Height                                   : 1 080 pixels
Display aspect ratio                     : 16:9
Frame rate mode                          : Constant
Frame rate                               : 23.976 (24000/1001) FPS
Color space                              : YUV
Chroma subsampling                       : 4:2:0
Bit depth                                : 8 bits
Scan type                                : Progressive
Bits/(Pixel*Frame)                       : 0.071
Stream size                              : 598 MiB (93%)
Default                                  : Yes
Forced                                   : No
Color range                              : Limited
Color primaries                          : BT.709
Transfer characteristics                 : BT.709
Matrix coefficients                      : BT.709

Audio
ID                                       : 2
Format                                   : E-AC-3
Format/Info                              : Enhanced AC-3
Commercial name                          : Dolby Digital Plus
Codec ID                                 : A_EAC3
Duration                                 : 23 min 40 s
Bit rate mode                            : Constant
Bit rate                                 : 224 kb/s
Channel(s)                               : 2 channels
Channel layout                           : L R
Sampling rate                            : 48.0 kHz
Frame rate                               : 31.250 FPS (1536 SPF)
Compression mode                         : Lossy
Stream size                              : 37.9 MiB (6%)
Language                                 : Japanese
Service kind                             : Complete Main
Default                                  : Yes
Forced                                   : No

Text
ID                                       : 3
Format                                   : ASS
Codec ID                                 : S_TEXT/ASS
Codec ID/Info                            : Advanced Sub Station Alpha
Duration                                 : 23 min 32 s
Bit rate                                 : 147 b/s
Count of elements                        : 460
Compression mode                         : Lossless
Stream size                              : 25.4 KiB (0%)
Title                                    : SubsPlus+
Language                                 : English
Default                                  : Yes
Forced                                   : No

Menu
00:00:00.000                             : en:Prologue
00:01:44.000                             : en:Opening
00:03:13.965                             : en:Episode
00:22:09.976                             : en:Ending

Other Files in this Torrent
[SubsPlus+] Kubo Won't Let Me Be Invisible - S01E01 (WEB 1080p) [8B09BC65].mkv
beta
Anime DDL+NZB mirror
Current Time: 19/07/2024 08:07



About/FAQs

Discord