File Size622.7 MB (652,979,771 bytes)
DownloadClickNUpload | DownloadGG | GoFile | KrakenFiles | MdiaLoad
MultiUp: Part1
  • BdUpload
  • DownAce
  • Fichier
  • FileCloud
  • Filerio
  • FilesCdn
  • IndiShare
  • Kbagi
  • Turbobit
  • UpToBox
  • Uppit
, Part2
  • BdUpload
  • DownAce
  • Fichier
  • FileCloud
  • Filerio
  • FilesCdn
  • IndiShare
  • Kbagi
  • Turbobit
  • UpToBox
  • Uppit
HashesCRC32: 57C33767, MD5: FD08C1D18A74C69DA0D25E8A5E0FE85E, SHA1: 4FDE5628EA66F73F72257AADAD22B6594BB7117B, SHA256: 5078ABFD2D448A5064C78E929A1ADBA87A81A5FCED7FD245C9B49D531C79AFE7, ED2K: 08644DFA390190635C155894275CB709
Screenshots
screenshotscreenshotscreenshotscreenshotscreenshot
SubtitlesAll Attachments | SubsPlus+ [eng, ASS]
Additional Info
General
Unique ID                                : 316588039635876407982591156771162324240 (0xEE2CA378780673A6C2ED564AB5AA7D10)
Complete name                            : [SubsPlus+] Kubo Won't Let Me Be Invisible - S01E06 (WEB 1080p) [57C33767].mkv
Format                                   : Matroska
Format version                           : Version 4
File size                                : 623 MiB
Duration                                 : 23 min 39 s
Overall bit rate                         : 3 679 kb/s
Movie name                               : [SubsPlus+] Kubo Won't Let Me Be Invisible - S01E06
Encoded date                             : UTC 2023-09-07 03:46:24
Writing application                      : mkvmerge v79.0 ('Funeral Pyres') 64-bit
Writing library                          : libebml v1.4.4 + libmatroska v1.7.1
Attachments                              : SPOverrideF-Regular.otf / SPOverrideF-Italics.otf / Sub-Alegreya-Bold.otf / Swis721_BT_Bold.ttf / AdLibRg.ttf / MeadBold.ttf / BakerSignetBT.ttf / Tonic Regular.ttf / TAHOMABD.TTF / ITCKRIST.ttf / calibril_0.ttf / calibrib.ttf / NotoSans-Medium.ttf

Video
ID                                       : 1
Format                                   : AVC
Format/Info                              : Advanced Video Codec
Format profile                           : High@L4
Format settings                          : CABAC / 4 Ref Frames
Format settings, CABAC                   : Yes
Format settings, Reference frames        : 4 frames
Codec ID                                 : V_MPEG4/ISO/AVC
Duration                                 : 23 min 39 s
Bit rate mode                            : Constant
Bit rate                                 : 3 426 kb/s
Nominal bit rate                         : 10 000 kb/s
Width                                    : 1 920 pixels
Height                                   : 1 080 pixels
Display aspect ratio                     : 16:9
Frame rate mode                          : Constant
Frame rate                               : 23.976 (24000/1001) FPS
Color space                              : YUV
Chroma subsampling                       : 4:2:0
Bit depth                                : 8 bits
Scan type                                : Progressive
Bits/(Pixel*Frame)                       : 0.069
Stream size                              : 580 MiB (93%)
Default                                  : Yes
Forced                                   : No
Color range                              : Limited
Color primaries                          : BT.709
Transfer characteristics                 : BT.709
Matrix coefficients                      : BT.709

Audio
ID                                       : 2
Format                                   : E-AC-3
Format/Info                              : Enhanced AC-3
Commercial name                          : Dolby Digital Plus
Codec ID                                 : A_EAC3
Duration                                 : 23 min 39 s
Bit rate mode                            : Constant
Bit rate                                 : 224 kb/s
Channel(s)                               : 2 channels
Channel layout                           : L R
Sampling rate                            : 48.0 kHz
Frame rate                               : 31.250 FPS (1536 SPF)
Compression mode                         : Lossy
Stream size                              : 37.9 MiB (6%)
Language                                 : Japanese
Service kind                             : Complete Main
Default                                  : Yes
Forced                                   : No

Text
ID                                       : 3
Format                                   : ASS
Codec ID                                 : S_TEXT/ASS
Codec ID/Info                            : Advanced Sub Station Alpha
Duration                                 : 23 min 30 s
Bit rate                                 : 132 b/s
Count of elements                        : 410
Compression mode                         : Lossless
Stream size                              : 22.8 KiB (0%)
Title                                    : SubsPlus+
Language                                 : English
Default                                  : Yes
Forced                                   : No

Menu
00:00:00.000                             : en:Prologue
00:01:39.996                             : en:Opening
00:03:09.961                             : en:Episode
00:22:09.892                             : en:Ending

Other Files in this Torrent
[SubsPlus+] Kubo Won't Let Me Be Invisible - S01E06 (WEB 1080p) [57C33767].mkv
beta
Anime DDL+NZB mirror
Current Time: 19/07/2024 08:09



About/FAQs

Discord