File Size692.2 MB (725,785,050 bytes)
DownloadClickNUpload | DownloadGG | GoFile | KrakenFiles | MdiaLoad
MultiUp: Part1
  • BdUpload
  • DownAce
  • Fichier
  • FileCloud
  • Filerio
  • FilesCdn
  • IndiShare
  • Kbagi
  • Turbobit
  • UpToBox
  • Uppit
, Part2
  • BdUpload
  • DownAce
  • Fichier
  • FileCloud
  • Filerio
  • FilesCdn
  • IndiShare
  • Kbagi
  • Turbobit
  • UpToBox
  • Uppit
HashesCRC32: 3A7B7DEE, MD5: 69A7F87A4D3C867D59DFFEF7B8A00F68, SHA1: D5A769FDC8016685D5238BCF58C08B3BC44788A1, SHA256: 7180C09C0D3CAEFFA156258EB99A1D5234615E3CD1521EC8E4502AC8657B0917, ED2K: C20CB3FD4F477014655B8A906C111BF5
Screenshots
screenshotscreenshotscreenshotscreenshotscreenshot
SubtitlesAll Attachments | SubsPlus+ [eng, ASS]
Additional Info
General
Unique ID                                : 221592935700469899335626347806225313714 (0xA6B53F3D8E5A5DB361756F59CCA3AFB2)
Complete name                            : [SubsPlus+] Kubo Won't Let Me Be Invisible - S01E09 (WEB 1080p) [3A7B7DEE].mkv
Format                                   : Matroska
Format version                           : Version 4
File size                                : 692 MiB
Duration                                 : 23 min 40 s
Overall bit rate                         : 4 089 kb/s
Movie name                               : [SubsPlus+] Kubo Won't Let Me Be Invisible - S01E09
Encoded date                             : UTC 2023-09-07 04:10:44
Writing application                      : mkvmerge v79.0 ('Funeral Pyres') 64-bit
Writing library                          : libebml v1.4.4 + libmatroska v1.7.1
Attachments                              : SPOverrideF-Regular.otf / SPOverrideF-Italics.otf / Sub-Alegreya-Bold.otf / Swis721_BT_Bold.ttf / CALIBRIB.TTF / BakerSignetBTRoman.ttf / MeadBold.ttf / TAHOMABD.TTF / AdLibRg.ttf / SPOverrideF-Regular.otf / SPOverrideF-Italics.otf / Sub-Alegreya-Bold.otf / trebucbd.ttf / trebucbi.ttf / trebucit.ttf / trebuc.ttf / AdLibBT.ttf / AdLibRg.ttf / BakerSignetBT.ttf / BakerSignetBTRoman.ttf / BelweBdBTBold.ttf / BRADHITC.ttf / calibrib_0.ttf / calibril_0.ttf / Inc901Bd.ttf / ITCKRIST.ttf / MeadBold.ttf / SqueakyChalkSound.ttf / Swis721_BT_Bold.ttf / tahomabd_0.ttf / TEMPSITC.TTF / Tonic Regular.ttf / tt0390m.ttf / unicode.futurab.ttf / NotoSans-Medium.ttf

Video
ID                                       : 1
Format                                   : AVC
Format/Info                              : Advanced Video Codec
Format profile                           : High@L4
Format settings                          : CABAC / 4 Ref Frames
Format settings, CABAC                   : Yes
Format settings, Reference frames        : 4 frames
Codec ID                                 : V_MPEG4/ISO/AVC
Duration                                 : 23 min 40 s
Bit rate mode                            : Constant
Bit rate                                 : 3 814 kb/s
Nominal bit rate                         : 10 000 kb/s
Width                                    : 1 920 pixels
Height                                   : 1 080 pixels
Display aspect ratio                     : 16:9
Frame rate mode                          : Constant
Frame rate                               : 23.976 (24000/1001) FPS
Color space                              : YUV
Chroma subsampling                       : 4:2:0
Bit depth                                : 8 bits
Scan type                                : Progressive
Bits/(Pixel*Frame)                       : 0.077
Stream size                              : 646 MiB (93%)
Default                                  : Yes
Forced                                   : No
Color range                              : Limited
Color primaries                          : BT.709
Transfer characteristics                 : BT.709
Matrix coefficients                      : BT.709

Audio
ID                                       : 2
Format                                   : E-AC-3
Format/Info                              : Enhanced AC-3
Commercial name                          : Dolby Digital Plus
Codec ID                                 : A_EAC3
Duration                                 : 23 min 40 s
Bit rate mode                            : Constant
Bit rate                                 : 224 kb/s
Channel(s)                               : 2 channels
Channel layout                           : L R
Sampling rate                            : 48.0 kHz
Frame rate                               : 31.250 FPS (1536 SPF)
Compression mode                         : Lossy
Stream size                              : 37.9 MiB (5%)
Language                                 : Japanese
Service kind                             : Complete Main
Default                                  : Yes
Forced                                   : No

Text
ID                                       : 3
Format                                   : ASS
Codec ID                                 : S_TEXT/ASS
Codec ID/Info                            : Advanced Sub Station Alpha
Duration                                 : 23 min 28 s
Bit rate                                 : 132 b/s
Count of elements                        : 407
Compression mode                         : Lossless
Stream size                              : 22.7 KiB (0%)
Title                                    : SubsPlus+
Language                                 : English
Default                                  : Yes
Forced                                   : No

Menu
00:00:00.000                             : en:Prologue
00:02:05.980                             : en:Opening
00:03:35.987                             : en:Episode
00:22:09.976                             : en:Ending

Other Files in this Torrent
[SubsPlus+] Kubo Won't Let Me Be Invisible - S01E09 (WEB 1080p) [3A7B7DEE].mkv
beta
Anime DDL+NZB mirror
Current Time: 19/07/2024 08:37



About/FAQs

Discord