File Size538.6 MB (564,719,670 bytes)
DownloadClickNUpload | DownloadGG | GoFile | KrakenFiles | MdiaLoad
MultiUp: Part1
  • BdUpload
  • DownAce
  • Fichier
  • FileCloud
  • Filerio
  • FilesCdn
  • IndiShare
  • Kbagi
  • Turbobit
  • UpToBox
  • Uppit
, Part2
  • BdUpload
  • DownAce
  • Fichier
  • FileCloud
  • Filerio
  • FilesCdn
  • IndiShare
  • Kbagi
  • Turbobit
  • UpToBox
  • Uppit
HashesCRC32: 0CBA26B7, MD5: 6E8BBB7EB16AD86846A5F53B42770D31, SHA1: 6690EFD75884824726935C7F7AD8484EF8E1E382, SHA256: 8F28E4F8F5C12F7F8558713E1D1E2A3CC7D349453C177640DE9C7DB065241D94, ED2K: 0ACB86FE3AB61B5488A645432C91C59F
Screenshots
screenshotscreenshotscreenshotscreenshotscreenshot
SubtitlesAll Attachments | SubsPlus+ [eng, ASS]
Additional Info
General
Unique ID                                : 210461136183922671511375704830892520754 (0x9E55572676575530CF937BBEF1BB3532)
Complete name                            : [SubsPlus+] Kubo Won't Let Me Be Invisible - S01E03 (WEB 1080p) [0CBA26B7].mkv
Format                                   : Matroska
Format version                           : Version 4
File size                                : 539 MiB
Duration                                 : 23 min 40 s
Overall bit rate                         : 3 182 kb/s
Movie name                               : [SubsPlus+] Kubo Won't Let Me Be Invisible - S01E03
Encoded date                             : UTC 2023-09-07 05:52:23
Writing application                      : mkvmerge v79.0 ('Funeral Pyres') 64-bit
Writing library                          : libebml v1.4.4 + libmatroska v1.7.1
Attachments                              : SPOverrideF-Regular.otf / SPOverrideF-Italics.otf / Sub-Alegreya-Bold.otf / Swis721_BT_Bold.ttf / BakerSignetBTRoman.ttf / SqueakyChalkSound.ttf / MeadBold.ttf / unicode.futurab.ttf / AdLibBT.ttf / calibrib.ttf / TAHOMABD.TTF / CALIBRIL.TTF / BakerSignetBT.ttf / AdLibRg.ttf / tahomabd_0.ttf / calibril_0.ttf / NotoSans-Medium.ttf / timesbd.ttf

Video
ID                                       : 1
Format                                   : AVC
Format/Info                              : Advanced Video Codec
Format profile                           : High@L4
Format settings                          : CABAC / 4 Ref Frames
Format settings, CABAC                   : Yes
Format settings, Reference frames        : 4 frames
Codec ID                                 : V_MPEG4/ISO/AVC
Duration                                 : 23 min 40 s
Bit rate mode                            : Constant
Bit rate                                 : 2 908 kb/s
Nominal bit rate                         : 10 000 kb/s
Width                                    : 1 920 pixels
Height                                   : 1 080 pixels
Display aspect ratio                     : 16:9
Frame rate mode                          : Constant
Frame rate                               : 23.976 (24000/1001) FPS
Color space                              : YUV
Chroma subsampling                       : 4:2:0
Bit depth                                : 8 bits
Scan type                                : Progressive
Bits/(Pixel*Frame)                       : 0.058
Stream size                              : 492 MiB (91%)
Default                                  : Yes
Forced                                   : No
Color range                              : Limited
Color primaries                          : BT.709
Transfer characteristics                 : BT.709
Matrix coefficients                      : BT.709

Audio
ID                                       : 2
Format                                   : E-AC-3
Format/Info                              : Enhanced AC-3
Commercial name                          : Dolby Digital Plus
Codec ID                                 : A_EAC3
Duration                                 : 23 min 39 s
Bit rate mode                            : Constant
Bit rate                                 : 224 kb/s
Channel(s)                               : 2 channels
Channel layout                           : L R
Sampling rate                            : 48.0 kHz
Frame rate                               : 31.250 FPS (1536 SPF)
Compression mode                         : Lossy
Stream size                              : 37.9 MiB (7%)
Language                                 : Japanese
Service kind                             : Complete Main
Default                                  : Yes
Forced                                   : No

Text
ID                                       : 3
Format                                   : ASS
Codec ID                                 : S_TEXT/ASS
Codec ID/Info                            : Advanced Sub Station Alpha
Duration                                 : 23 min 34 s
Bit rate                                 : 143 b/s
Count of elements                        : 464
Compression mode                         : Lossless
Stream size                              : 24.7 KiB (0%)
Title                                    : SubsPlus+
Language                                 : English
Default                                  : Yes
Forced                                   : No

Menu
00:00:00.000                             : en:Prologue
00:02:08.983                             : en:Opening
00:03:38.990                             : en:Episode
00:22:09.934                             : en:Ending

Other Files in this Torrent
[SubsPlus+] Kubo Won't Let Me Be Invisible - S01E03 (WEB 1080p) [0CBA26B7].mkv
beta
Anime DDL+NZB mirror
Current Time: 19/07/2024 09:28



About/FAQs

Discord