File Size652.7 MB (684,384,329 bytes)
DownloadClickNUpload | DownloadGG | GoFile | KrakenFiles | MdiaLoad
MultiUp: Part1
  • BdUpload
  • DownAce
  • Fichier
  • FileCloud
  • Filerio
  • FilesCdn
  • IndiShare
  • Kbagi
  • Turbobit
  • UpToBox
  • Uppit
, Part2
  • BdUpload
  • DownAce
  • Fichier
  • FileCloud
  • Filerio
  • FilesCdn
  • IndiShare
  • Kbagi
  • Turbobit
  • UpToBox
  • Uppit
HashesCRC32: CF79BE4C, MD5: 0DBD40F32FB6FA99DF7952B158FFF95E, SHA1: 78D043AB6E7A9C4F56CA2C76D8796A5F556C7599, SHA256: 0DD5737E475EB709F0B924F5FDF4CF1663C63B6E1D8554057F3E9E7D3ABCD97C, ED2K: D15F958C227B93AD3D7F75CD09A92962
Screenshots
screenshotscreenshotscreenshotscreenshotscreenshot
SubtitlesAll Attachments | SubsPlus+ [eng, ASS]
Additional Info
General
Unique ID                                : 234090025742297485279130839787379383288 (0xB01C1959C3B3A69B3A923DFE95585BF8)
Complete name                            : [SubsPlus+] Kubo Won't Let Me Be Invisible - S01E02 (WEB 1080p) [CF79BE4C].mkv
Format                                   : Matroska
Format version                           : Version 4
File size                                : 653 MiB
Duration                                 : 23 min 40 s
Overall bit rate                         : 3 855 kb/s
Movie name                               : [SubsPlus+] Kubo Won't Let Me Be Invisible - S01E02
Encoded date                             : UTC 2023-09-07 04:36:15
Writing application                      : mkvmerge v79.0 ('Funeral Pyres') 64-bit
Writing library                          : libebml v1.4.4 + libmatroska v1.7.1
Attachments                              : SPOverrideF-Regular.otf / SPOverrideF-Italics.otf / Sub-Alegreya-Bold.otf / Swis721_BT_Bold.ttf / calibrib.ttf / MeadBold.ttf / Tonic Regular.ttf / BRADHITC.ttf / CALIBRIL.TTF / AdLibRg.ttf / BakerSignetBT.ttf / AdLibBT.ttf / BakerSignetBTRoman.ttf / arial.ttf / NotoSans-Medium.ttf / timesbd.ttf

Video
ID                                       : 1
Format                                   : AVC
Format/Info                              : Advanced Video Codec
Format profile                           : High@L4
Format settings                          : CABAC / 4 Ref Frames
Format settings, CABAC                   : Yes
Format settings, Reference frames        : 4 frames
Codec ID                                 : V_MPEG4/ISO/AVC
Duration                                 : 23 min 40 s
Bit rate mode                            : Constant
Bit rate                                 : 3 599 kb/s
Nominal bit rate                         : 10 000 kb/s
Width                                    : 1 920 pixels
Height                                   : 1 080 pixels
Display aspect ratio                     : 16:9
Frame rate mode                          : Constant
Frame rate                               : 23.976 (24000/1001) FPS
Color space                              : YUV
Chroma subsampling                       : 4:2:0
Bit depth                                : 8 bits
Scan type                                : Progressive
Bits/(Pixel*Frame)                       : 0.072
Stream size                              : 609 MiB (93%)
Default                                  : Yes
Forced                                   : No
Color range                              : Limited
Color primaries                          : BT.709
Transfer characteristics                 : BT.709
Matrix coefficients                      : BT.709

Audio
ID                                       : 2
Format                                   : E-AC-3
Format/Info                              : Enhanced AC-3
Commercial name                          : Dolby Digital Plus
Codec ID                                 : A_EAC3
Duration                                 : 23 min 40 s
Bit rate mode                            : Constant
Bit rate                                 : 224 kb/s
Channel(s)                               : 2 channels
Channel layout                           : L R
Sampling rate                            : 48.0 kHz
Frame rate                               : 31.250 FPS (1536 SPF)
Compression mode                         : Lossy
Stream size                              : 37.9 MiB (6%)
Language                                 : Japanese
Service kind                             : Complete Main
Default                                  : Yes
Forced                                   : No

Text
ID                                       : 3
Format                                   : ASS
Codec ID                                 : S_TEXT/ASS
Codec ID/Info                            : Advanced Sub Station Alpha
Duration                                 : 23 min 30 s
Bit rate                                 : 126 b/s
Count of elements                        : 420
Compression mode                         : Lossless
Stream size                              : 21.8 KiB (0%)
Title                                    : SubsPlus+
Language                                 : English
Default                                  : Yes
Forced                                   : No

Menu
00:00:00.000                             : en:Prologue
00:00:58.037                             : en:Opening
00:02:28.127                             : en:Episode
00:22:10.017                             : en:Ending

Other Files in this Torrent
[SubsPlus+] Kubo Won't Let Me Be Invisible - S01E02 (WEB 1080p) [CF79BE4C].mkv
beta
Anime DDL+NZB mirror
Current Time: 19/07/2024 09:58



About/FAQs

Discord