File Size679.2 MB (712,222,105 bytes)
DownloadClickNUpload | DownloadGG | GoFile | KrakenFiles | MdiaLoad
MultiUp: Part1
  • BdUpload
  • DownAce
  • Fichier
  • FileCloud
  • Filerio
  • FilesCdn
  • IndiShare
  • Kbagi
  • Turbobit
  • UpToBox
  • Uppit
, Part2
  • BdUpload
  • DownAce
  • Fichier
  • FileCloud
  • Filerio
  • FilesCdn
  • IndiShare
  • Kbagi
  • Turbobit
  • UpToBox
  • Uppit
HashesCRC32: 6DEFB354, MD5: 4CE099A5D4BC6D6D48BCADEF441D6D8C, SHA1: C536E1835982316D1C70CF8EE14C254B17492E23, SHA256: CA49711ECAABAFA6F0CD7DF080F3F35DE3FB29603DA77B4F0A537C18188C2F18, ED2K: 3D2FD8428219EF367D3445597C9DA6F6
Screenshots
screenshotscreenshotscreenshotscreenshotscreenshot
SubtitlesAll Attachments | SubsPlus+ [eng, ASS]
Additional Info
General
Unique ID                                : 149034124590590055560665366606963379486 (0x701EEDA6EF0486E961989B0B1A958D1E)
Complete name                            : [SubsPlus+] Kubo Won't Let Me Be Invisible - S01E07 (WEB 1080p) [6DEFB354].mkv
Format                                   : Matroska
Format version                           : Version 4
File size                                : 679 MiB
Duration                                 : 23 min 40 s
Overall bit rate                         : 4 012 kb/s
Movie name                               : [SubsPlus+] Kubo Won't Let Me Be Invisible - S01E07
Encoded date                             : UTC 2023-09-07 04:40:15
Writing application                      : mkvmerge v79.0 ('Funeral Pyres') 64-bit
Writing library                          : libebml v1.4.4 + libmatroska v1.7.1
Attachments                              : SPOverrideF-Regular.otf / SPOverrideF-Italics.otf / Sub-Alegreya-Bold.otf / Swis721_BT_Bold.ttf / MeadBold.ttf / BakerSignetBT.ttf / CALIBRIB.TTF / CALIBRIL.TTF / BakerSignetBTRoman.ttf / Humanst521 Cn BT Bold.ttf / arial.ttf / NotoSans-Medium.ttf

Video
ID                                       : 1
Format                                   : AVC
Format/Info                              : Advanced Video Codec
Format profile                           : High@L4
Format settings                          : CABAC / 4 Ref Frames
Format settings, CABAC                   : Yes
Format settings, Reference frames        : 4 frames
Codec ID                                 : V_MPEG4/ISO/AVC
Duration                                 : 23 min 40 s
Bit rate mode                            : Constant
Bit rate                                 : 3 763 kb/s
Nominal bit rate                         : 10 000 kb/s
Width                                    : 1 920 pixels
Height                                   : 1 080 pixels
Display aspect ratio                     : 16:9
Frame rate mode                          : Constant
Frame rate                               : 23.976 (24000/1001) FPS
Color space                              : YUV
Chroma subsampling                       : 4:2:0
Bit depth                                : 8 bits
Scan type                                : Progressive
Bits/(Pixel*Frame)                       : 0.076
Stream size                              : 637 MiB (94%)
Default                                  : Yes
Forced                                   : No
Color range                              : Limited
Color primaries                          : BT.709
Transfer characteristics                 : BT.709
Matrix coefficients                      : BT.709

Audio
ID                                       : 2
Format                                   : E-AC-3
Format/Info                              : Enhanced AC-3
Commercial name                          : Dolby Digital Plus
Codec ID                                 : A_EAC3
Duration                                 : 23 min 40 s
Bit rate mode                            : Constant
Bit rate                                 : 224 kb/s
Channel(s)                               : 2 channels
Channel layout                           : L R
Sampling rate                            : 48.0 kHz
Frame rate                               : 31.250 FPS (1536 SPF)
Compression mode                         : Lossy
Stream size                              : 37.9 MiB (6%)
Language                                 : Japanese
Service kind                             : Complete Main
Default                                  : Yes
Forced                                   : No

Text
ID                                       : 3
Format                                   : ASS
Codec ID                                 : S_TEXT/ASS
Codec ID/Info                            : Advanced Sub Station Alpha
Duration                                 : 23 min 32 s
Bit rate                                 : 133 b/s
Count of elements                        : 425
Compression mode                         : Lossless
Stream size                              : 23.0 KiB (0%)
Title                                    : SubsPlus+
Language                                 : English
Default                                  : Yes
Forced                                   : No

Menu
00:00:00.000                             : en:Prologue
00:01:03.960                             : en:Opening
00:02:34.008                             : en:Episode
00:22:09.976                             : en:Ending

Other Files in this Torrent
[SubsPlus+] Kubo Won't Let Me Be Invisible - S01E07 (WEB 1080p) [6DEFB354].mkv
beta
Anime DDL+NZB mirror
Current Time: 19/07/2024 09:26



About/FAQs

Discord