File Size604.8 MB (634,173,708 bytes)
DownloadClickNUpload | DownloadGG | GoFile | KrakenFiles | MdiaLoad
MultiUp: Part1
  • BdUpload
  • DownAce
  • Fichier
  • FileCloud
  • Filerio
  • FilesCdn
  • IndiShare
  • Kbagi
  • Turbobit
  • UpToBox
  • Uppit
, Part2
  • BdUpload
  • DownAce
  • Fichier
  • FileCloud
  • Filerio
  • FilesCdn
  • IndiShare
  • Kbagi
  • Turbobit
  • UpToBox
  • Uppit
HashesCRC32: 82F2C90B, MD5: 79056BD8A441AF98BD3B3BEDE787FE4E, SHA1: 0707FF88A514B94ABCF1AB165EFAFE7A3797C49D, SHA256: AD79463A2F20626B8A82DD24088CB59C0A0CF5FA787B7DA5FCB388B402E64E57, ED2K: 8F25B1961C2CA9C65B0B463AD880DD69
Screenshots
screenshotscreenshotscreenshotscreenshotscreenshot
SubtitlesAll Attachments | SubsPlus+ [eng, ASS]
Additional Info
General
Unique ID                                : 324301541699676672565703118585848396828 (0xF3FA347BFF15CC3B34A8C95F982BFC1C)
Complete name                            : [SubsPlus+] Kubo Won't Let Me Be Invisible - S01E05 (WEB 1080p) [82F2C90B].mkv
Format                                   : Matroska
Format version                           : Version 4
File size                                : 605 MiB
Duration                                 : 23 min 40 s
Overall bit rate                         : 3 573 kb/s
Movie name                               : [SubsPlus+] Kubo Won't Let Me Be Invisible - S01E05
Encoded date                             : UTC 2023-09-07 03:38:24
Writing application                      : mkvmerge v79.0 ('Funeral Pyres') 64-bit
Writing library                          : libebml v1.4.4 + libmatroska v1.7.1
Attachments                              : SPOverrideF-Regular.otf / SPOverrideF-Italics.otf / Sub-Alegreya-Bold.otf / Swis721_BT_Bold.ttf / MeadBold.ttf / calibrib_0.ttf / Inc901Bd.ttf / CALIBRIL.TTF / NotoSans-Medium.ttf

Video
ID                                       : 1
Format                                   : AVC
Format/Info                              : Advanced Video Codec
Format profile                           : High@L4
Format settings                          : CABAC / 4 Ref Frames
Format settings, CABAC                   : Yes
Format settings, Reference frames        : 4 frames
Codec ID                                 : V_MPEG4/ISO/AVC
Duration                                 : 23 min 40 s
Bit rate mode                            : Constant
Bit rate                                 : 3 326 kb/s
Nominal bit rate                         : 10 000 kb/s
Width                                    : 1 920 pixels
Height                                   : 1 080 pixels
Display aspect ratio                     : 16:9
Frame rate mode                          : Constant
Frame rate                               : 23.976 (24000/1001) FPS
Color space                              : YUV
Chroma subsampling                       : 4:2:0
Bit depth                                : 8 bits
Scan type                                : Progressive
Bits/(Pixel*Frame)                       : 0.067
Stream size                              : 563 MiB (93%)
Default                                  : Yes
Forced                                   : No
Color range                              : Limited
Color primaries                          : BT.709
Transfer characteristics                 : BT.709
Matrix coefficients                      : BT.709

Audio
ID                                       : 2
Format                                   : E-AC-3
Format/Info                              : Enhanced AC-3
Commercial name                          : Dolby Digital Plus
Codec ID                                 : A_EAC3
Duration                                 : 23 min 39 s
Bit rate mode                            : Constant
Bit rate                                 : 224 kb/s
Channel(s)                               : 2 channels
Channel layout                           : L R
Sampling rate                            : 48.0 kHz
Frame rate                               : 31.250 FPS (1536 SPF)
Compression mode                         : Lossy
Stream size                              : 37.9 MiB (6%)
Title                                    : 日本語
Language                                 : Japanese
Service kind                             : Complete Main
Default                                  : Yes
Forced                                   : No

Text
ID                                       : 3
Format                                   : ASS
Codec ID                                 : S_TEXT/ASS
Codec ID/Info                            : Advanced Sub Station Alpha
Duration                                 : 23 min 26 s
Bit rate                                 : 108 b/s
Count of elements                        : 355
Compression mode                         : Lossless
Stream size                              : 18.6 KiB (0%)
Title                                    : SubsPlus+
Language                                 : English
Default                                  : Yes
Forced                                   : No

Menu
00:00:00.000                             : en:Prologue
00:01:33.990                             : en:Opening
00:03:03.955                             : en:Episode
00:22:09.934                             : en:Ending

Other Files in this Torrent
[SubsPlus+] Kubo Won't Let Me Be Invisible - S01E05 (WEB 1080p) [82F2C90B].mkv
beta
Anime DDL+NZB mirror
Current Time: 19/07/2024 09:06



About/FAQs

Discord