File Size542.1 MB (568,482,845 bytes)
DownloadClickNUpload | DownloadGG | GoFile | KrakenFiles | MdiaLoad
MultiUp: Part1
  • BdUpload
  • DownAce
  • Fichier
  • FileCloud
  • Filerio
  • FilesCdn
  • IndiShare
  • Kbagi
  • Turbobit
  • UpToBox
  • Uppit
, Part2
  • BdUpload
  • DownAce
  • Fichier
  • FileCloud
  • Filerio
  • FilesCdn
  • IndiShare
  • Kbagi
  • Turbobit
  • UpToBox
  • Uppit
HashesCRC32: 6F174818, MD5: DA975EF8A8AC3A3C130A831E8FED9B96, SHA1: C8F64383B28F66B1B7CB5E63EBA099A28DB58CFA, SHA256: 678C685583783164F741AD4ED98DB96776A7E1F1B2C3A80706678E0C3ABDD16B, ED2K: C06ACEA88AD523BAA6B3539110111B0F
Screenshots
screenshotscreenshotscreenshotscreenshotscreenshot
SubtitlesAll Attachments | SubsPlus+ [eng, ASS]
Additional Info
General
Unique ID                                : 332588792302142393602156742323288013892 (0xFA36457C3075D72E07D2A7A167A1FC44)
Complete name                            : [SubsPlus+] Kubo Won't Let Me Be Invisible - S01E11 (WEB 1080p) [6F174818].mkv
Format                                   : Matroska
Format version                           : Version 4
File size                                : 542 MiB
Duration                                 : 23 min 40 s
Overall bit rate                         : 3 203 kb/s
Movie name                               : [SubsPlus+] Kubo Won't Let Me Be Invisible - S01E11
Encoded date                             : UTC 2023-09-07 04:26:04
Writing application                      : mkvmerge v79.0 ('Funeral Pyres') 64-bit
Writing library                          : libebml v1.4.4 + libmatroska v1.7.1
Attachments                              : SPOverrideF-Regular.otf / SPOverrideF-Italics.otf / Sub-Alegreya-Bold.otf / Swis721_BT_Bold.ttf / BalloonBdBTBold.ttf / CALIBRIL.TTF / Tonic Regular.ttf / MeadBold.ttf / calibrib.ttf / ARIALBD.TTF / BRADHITC.ttf / TAHOMABD.TTF / SPOverrideF-Regular.otf / SPOverrideF-Italics.otf / Sub-Alegreya-Bold.otf / trebucbd.ttf / trebucbi.ttf / trebucit.ttf / trebuc.ttf / AdLibBT.ttf / AdLibRg.ttf / BakerSignetBT.ttf / BakerSignetBTRoman.ttf / BelweBdBTBold.ttf / BRADHITC.ttf / calibrib_0.ttf / calibril_0.ttf / Inc901Bd.ttf / inc901l.ttf / ITCKRIST.ttf / joystix.ttf / MeadBold.ttf / SqueakyChalkSound.ttf / Swis721_BT_Bold.ttf / tahomabd_0.ttf / TEMPSITC.TTF / Tonic Regular.ttf / tt0390m.ttf / unicode.futurab.ttf / NotoSans-Medium.ttf

Video
ID                                       : 1
Format                                   : AVC
Format/Info                              : Advanced Video Codec
Format profile                           : High@L4
Format settings                          : CABAC / 4 Ref Frames
Format settings, CABAC                   : Yes
Format settings, Reference frames        : 4 frames
Codec ID                                 : V_MPEG4/ISO/AVC
Duration                                 : 23 min 40 s
Bit rate mode                            : Constant
Bit rate                                 : 2 913 kb/s
Nominal bit rate                         : 10 000 kb/s
Width                                    : 1 920 pixels
Height                                   : 1 080 pixels
Display aspect ratio                     : 16:9
Frame rate mode                          : Constant
Frame rate                               : 23.976 (24000/1001) FPS
Color space                              : YUV
Chroma subsampling                       : 4:2:0
Bit depth                                : 8 bits
Scan type                                : Progressive
Bits/(Pixel*Frame)                       : 0.059
Stream size                              : 493 MiB (91%)
Default                                  : Yes
Forced                                   : No
Color range                              : Limited
Color primaries                          : BT.709
Transfer characteristics                 : BT.709
Matrix coefficients                      : BT.709

Audio
ID                                       : 2
Format                                   : E-AC-3
Format/Info                              : Enhanced AC-3
Commercial name                          : Dolby Digital Plus
Codec ID                                 : A_EAC3
Duration                                 : 23 min 40 s
Bit rate mode                            : Constant
Bit rate                                 : 224 kb/s
Channel(s)                               : 2 channels
Channel layout                           : L R
Sampling rate                            : 48.0 kHz
Frame rate                               : 31.250 FPS (1536 SPF)
Compression mode                         : Lossy
Stream size                              : 37.9 MiB (7%)
Language                                 : Japanese
Service kind                             : Complete Main
Default                                  : Yes
Forced                                   : No

Text
ID                                       : 3
Format                                   : ASS
Codec ID                                 : S_TEXT/ASS
Codec ID/Info                            : Advanced Sub Station Alpha
Duration                                 : 23 min 32 s
Bit rate                                 : 128 b/s
Count of elements                        : 427
Compression mode                         : Lossless
Stream size                              : 22.1 KiB (0%)
Title                                    : SubsPlus+
Language                                 : English
Default                                  : Yes
Forced                                   : No

Menu
00:00:00.000                             : en:Prologue
00:01:13.970                             : en:Opening
00:02:44.018                             : en:Episode
00:22:10.017                             : en:Ending

Other Files in this Torrent
[SubsPlus+] Kubo Won't Let Me Be Invisible - S01E11 (WEB 1080p) [6F174818].mkv
beta
Anime DDL+NZB mirror
Current Time: 19/07/2024 09:45



About/FAQs

Discord