File Size375.4 MB (393,593,073 bytes)
DownloadAnonFiles | ClickNUpload | DropAPK | Free | MultiUp
  • BdUpload
  • DownAce
  • Fichier
  • FileCloud
  • Filerio
  • FilesCdn
  • IndiShare
  • Kbagi
  • Turbobit
  • UpToBox
  • Uppit
| SolidFiles | ZippyShare
HashesCRC32: 35B3F92D, MD5: D84486C430128A91FB82B523B34D86BA, SHA1: B29543D5055C5B2B85342E2D7AED2D15E0FC70FB, SHA256: 67A3BE792501C2D8BEB89FAD1C1B2666277C74AA8E5C4A6A951EDA796F78F5E6, ED2K: 1DB00CFAF63DD1CB136F60EA1732C05A
Screenshots
screenshotscreenshotscreenshotscreenshotscreenshot
SubtitlesAll Attachments | English [eng, ASS], French [fre, ASS], German [ger, ASS], Italian [ita, ASS], Spanish[ESP] [spa, ASS], Spanish[LAT] [spa, ASS], Brazilian Portuguese [por, ASS], Russian [rus, ASS], Arabic [ara, ASS], English [Full] (PGS) [eng, PGS], English [Signs/Songs] (PGS) [jpn, PGS]
Additional Info
General
Unique ID                                : 8594379372801209506065633568126521279 (0x677379E44FACF6E2FE1268C26CDCFBF)
Complete name                            : Mob Psycho 100 - S02E12.mkv
Format                                   : Matroska
Format version                           : Version 4
File size                                : 375 MiB
Duration                                 : 24 min 12 s
Overall bit rate                         : 2 168 kb/s
Encoded date                             : UTC 2021-03-22 07:49:09
Writing application                      : mkvmerge v47.0.0 ('Black Flag') 64-bit
Writing library                          : libebml v1.3.10 + libmatroska v1.5.2 / Lavf58.45.100

Video
ID                                       : 1
Format                                   : HEVC
Format/Info                              : High Efficiency Video Coding
Format profile                           : Main 10@L5@Main
Codec ID                                 : V_MPEGH/ISO/HEVC
Duration                                 : 24 min 12 s
Bit rate                                 : 2 023 kb/s
Width                                    : 1 920 pixels
Height                                   : 1 080 pixels
Display aspect ratio                     : 16:9
Frame rate mode                          : Variable
Frame rate                               : 23.976 FPS
Color space                              : YUV
Chroma subsampling                       : 4:2:0
Bit depth                                : 10 bits
Bits/(Pixel*Frame)                       : 0.041
Stream size                              : 350 MiB (93%)
Title                                    : [Judas] x265 10b
Writing library                          : x265 3.4+2-73ca1d7be377:[Windows][GCC 10.2.1][64 bit] 10bit
Encoding settings                        : cpuid=1111039 / frame-threads=4 / numa-pools=20,- / wpp / no-pmode / no-pme / no-psnr / no-ssim / log-level=0 / input-csp=1 / input-res=1920x1080 / interlace=0 / total-frames=0 / level-idc=0 / high-tier=1 / uhd-bd=0 / ref=6 / no-allow-non-conformance / no-repeat-headers / annexb / no-aud / no-hrd / info / hash=0 / no-temporal-layers / open-gop / min-keyint=24 / keyint=250 / gop-lookahead=0 / bframes=8 / b-adapt=2 / b-pyramid / bframe-bias=0 / rc-lookahead=100 / lookahead-slices=4 / scenecut=40 / hist-scenecut=0 / radl=0 / no-splice / no-intra-refresh / ctu=64 / min-cu-size=8 / rect / no-amp / max-tu-size=32 / tu-inter-depth=1 / tu-intra-depth=1 / limit-tu=0 / rdoq-level=2 / dynamic-rd=0.00 / no-ssim-rd / signhide / no-tskip / nr-intra=0 / nr-inter=0 / no-constrained-intra / strong-intra-smoothing / max-merge=5 / limit-refs=3 / limit-modes / me=3 / subme=5 / merange=57 / temporal-mvp / no-frame-dup / no-hme / weightp / weightb / no-analyze-src-pics / deblock=0:0 / sao / no-sao-non-deblock / rd=4 / selective-sao=4 / no-early-skip / no-rskip / no-fast-intra / no-tskip-fast / no-cu-lossless / b-intra / no-splitrd-skip / rdpenalty=0 / psy-rd=1.20 / psy-rdoq=1.00 / no-rd-refine / no-lossless / cbqpoffs=0 / crqpoffs=0 / rc=crf / crf=21.5 / qcomp=0.60 / qpstep=4 / stats-write=0 / stats-read=0 / ipratio=1.40 / pbratio=1.30 / aq-mode=3 / aq-strength=0.75 / cutree / zone-count=0 / no-strict-cbr / qg-size=32 / no-rc-grain / qpmax=69 / qpmin=0 / no-const-vbv / sar=0 / overscan=0 / videoformat=5 / range=0 / colorprim=2 / transfer=2 / colormatrix=2 / chromaloc=0 / display-window=0 / cll=0,0 / min-luma=0 / max-luma=1023 / log2-max-poc-lsb=8 / vui-timing-info / vui-hrd-info / slices=1 / no-opt-qp-pps / no-opt-ref-list-length-pps / no-multi-pass-opt-rps / scenecut-bias=0.05 / hist-threshold=0.01 / no-opt-cu-delta-qp / no-aq-motion / no-hdr10 / no-hdr10-opt / no-dhdr10-opt / no-idr-recovery-sei / analysis-reuse-level=0 / analysis-save-reuse-level=0 / analysis-load-reuse-level=0 / scale-factor=0 / refine-intra=0 / refine-inter=0 / refine-mv=1 / refine-ctu-distortion=0 / limit-sao / ctu-info=0 / no-lowpass-dct / refine-analysis-type=0 / copy-pic=1 / max-ausize-factor=1.0 / no-dynamic-refine / no-single-sei / no-hevc-aq / no-svt / no-field / qp-adaptation-range=3.00 / no-scenecut-aware-qpconformance-window-offsets / right=0 / bottom=0 / decoder-max-rate=0
Default                                  : Yes
Forced                                   : No
Color range                              : Limited

Audio
ID                                       : 2
ID in the original source medium         : 4353 (0x1101)
Format                                   : Opus
Codec ID                                 : A_OPUS
Duration                                 : 24 min 11 s
Bit rate                                 : 107 kb/s
Channel(s)                               : 2 channels
Channel layout                           : L R
Sampling rate                            : 48.0 kHz
Frame rate                               : 49.998 FPS (960 SPF)
Compression mode                         : Lossy
Stream size                              : 18.5 MiB (5%)
Title                                    : [Judas] JAP Stereo (Opus 112Kbps)
Writing library                          : Lavc58.91.100 libopus
Language                                 : Japanese
Default                                  : No
Forced                                   : No
Original source medium                   : Blu-ray

Text #1
ID                                       : 3
Format                                   : ASS
Codec ID                                 : S_TEXT/ASS
Codec ID/Info                            : Advanced Sub Station Alpha
Duration                                 : 24 min 6 s
Bit rate                                 : 158 b/s
Count of elements                        : 418
Compression mode                         : Lossless
Stream size                              : 28.0 KiB (0%)
Title                                    : English
Language                                 : English
Default                                  : Yes
Forced                                   : Yes

Text #2
ID                                       : 4
Format                                   : ASS
Codec ID                                 : S_TEXT/ASS
Codec ID/Info                            : Advanced Sub Station Alpha
Duration                                 : 22 min 49 s
Bit rate                                 : 147 b/s
Count of elements                        : 369
Compression mode                         : Lossless
Stream size                              : 24.7 KiB (0%)
Title                                    : French
Language                                 : French
Default                                  : No
Forced                                   : No

Text #3
ID                                       : 5
Format                                   : ASS
Codec ID                                 : S_TEXT/ASS
Codec ID/Info                            : Advanced Sub Station Alpha
Duration                                 : 24 min 6 s
Bit rate                                 : 226 b/s
Count of elements                        : 458
Compression mode                         : Lossless
Stream size                              : 40.1 KiB (0%)
Title                                    : German
Language                                 : German
Default                                  : No
Forced                                   : No

Text #4
ID                                       : 6
Format                                   : ASS
Codec ID                                 : S_TEXT/ASS
Codec ID/Info                            : Advanced Sub Station Alpha
Duration                                 : 22 min 50 s
Bit rate                                 : 165 b/s
Count of elements                        : 387
Compression mode                         : Lossless
Stream size                              : 27.8 KiB (0%)
Title                                    : Italian
Language                                 : Italian
Default                                  : No
Forced                                   : No

Text #5
ID                                       : 7
Format                                   : ASS
Codec ID                                 : S_TEXT/ASS
Codec ID/Info                            : Advanced Sub Station Alpha
Duration                                 : 22 min 42 s
Bit rate                                 : 129 b/s
Count of elements                        : 351
Compression mode                         : Lossless
Stream size                              : 21.5 KiB (0%)
Title                                    : Spanish[ESP]
Language                                 : Spanish
Default                                  : No
Forced                                   : No

Text #6
ID                                       : 8
Format                                   : ASS
Codec ID                                 : S_TEXT/ASS
Codec ID/Info                            : Advanced Sub Station Alpha
Duration                                 : 22 min 42 s
Bit rate                                 : 129 b/s
Count of elements                        : 351
Compression mode                         : Lossless
Stream size                              : 21.5 KiB (0%)
Title                                    : Spanish[LAT]
Language                                 : Spanish
Default                                  : No
Forced                                   : No

Text #7
ID                                       : 9
Format                                   : ASS
Codec ID                                 : S_TEXT/ASS
Codec ID/Info                            : Advanced Sub Station Alpha
Duration                                 : 24 min 6 s
Bit rate                                 : 166 b/s
Count of elements                        : 419
Compression mode                         : Lossless
Stream size                              : 29.5 KiB (0%)
Title                                    : Brazilian Portuguese
Language                                 : Portuguese
Default                                  : No
Forced                                   : No

Text #8
ID                                       : 10
Format                                   : ASS
Codec ID                                 : S_TEXT/ASS
Codec ID/Info                            : Advanced Sub Station Alpha
Duration                                 : 22 min 52 s
Bit rate                                 : 213 b/s
Count of elements                        : 423
Compression mode                         : Lossless
Stream size                              : 35.8 KiB (0%)
Title                                    : Russian
Language                                 : Russian
Default                                  : No
Forced                                   : No

Text #9
ID                                       : 11
Format                                   : ASS
Codec ID                                 : S_TEXT/ASS
Codec ID/Info                            : Advanced Sub Station Alpha
Duration                                 : 24 min 6 s
Bit rate                                 : 193 b/s
Count of elements                        : 417
Compression mode                         : Lossless
Stream size                              : 34.2 KiB (0%)
Title                                    : Arabic
Language                                 : Arabic
Default                                  : No
Forced                                   : No

Text #10
ID                                       : 12
ID in the original source medium         : 4608 (0x1200)
Format                                   : PGS
Muxing mode                              : zlib
Codec ID                                 : S_HDMV/PGS
Codec ID/Info                            : Picture based subtitle format used on BDs/HD-DVDs
Duration                                 : 24 min 6 s
Bit rate                                 : 61.2 kb/s
Count of elements                        : 828
Stream size                              : 10.6 MiB (3%)
Title                                    : English [Full] (PGS)
Language                                 : English
Default                                  : No
Forced                                   : No
Original source medium                   : Blu-ray

Text #11
ID                                       : 13
ID in the original source medium         : 4609 (0x1201)
Format                                   : PGS
Muxing mode                              : zlib
Codec ID                                 : S_HDMV/PGS
Codec ID/Info                            : Picture based subtitle format used on BDs/HD-DVDs
Duration                                 : 24 min 6 s
Bit rate                                 : 6 732 b/s
Count of elements                        : 89
Stream size                              : 1.16 MiB (0%)
Title                                    : English [Signs/Songs] (PGS)
Language                                 : Japanese
Default                                  : No
Forced                                   : No
Original source medium                   : Blu-ray

Menu
00:00:00.000                             : :Chapter 01
00:01:30.006                             : :Chapter 02
00:10:36.260                             : :Chapter 03
00:22:25.260                             : :Chapter 04
00:23:55.183                             : :Chapter 05

Other Files in this Torrent
Mob Psycho 100 S2/Mob Psycho 100 - S02E12.mkv
beta
Anime DDL+NZB mirror
Current Time: 07/06/2023 03:10



About/FAQs

Discord