File Size417.1 MB (437,378,476 bytes)
DownloadAnonFiles | ClickNUpload | DropAPK | Free | MultiUp
  • BdUpload
  • DownAce
  • Fichier
  • FileCloud
  • Filerio
  • FilesCdn
  • IndiShare
  • Kbagi
  • Turbobit
  • UpToBox
  • Uppit
| SolidFiles | ZippyShare
HashesCRC32: F52C3CF5, MD5: FDECF99D1D73632C3FD61F2FA7619D6E, SHA1: 91EC6FB9F92CC2DD23C0872BF11DD9A0C7374E13, SHA256: 55C1F876C0C2468DD5CFD8828932D6FAA5B13CF6B38C94A2B648AC9ADED6CA7F, ED2K: D7ED2CC70192E1D69D1C70EEC4766FBA
Screenshots
screenshotscreenshotscreenshotscreenshotscreenshot
SubtitlesAll Attachments | English [Full] (0x539/kBaraka) [eng, ASS], English [Signs/Songs] (0x539/kBaraka) [jpn, ASS], French [fre, ASS], German [ger, ASS], Italian [ita, ASS], Spanish[ESP] [spa, ASS], Spanish[LAT] [spa, ASS], Brazilian Portuguese [por, ASS], Russian [rus, ASS], Arabic [ara, ASS], English [Full] (PGS) [eng, PGS], English [Signs/Songs] (PGS) [jpn, PGS]
Additional Info
General
Unique ID                                : 60320374735232020643314333226580638996 (0x2D614816ABA565BB04D1C3CBCC1CFD14)
Complete name                            : Mob Psycho 100 - S01E04.mkv
Format                                   : Matroska
Format version                           : Version 4
File size                                : 417 MiB
Duration                                 : 24 min 16 s
Overall bit rate                         : 2 403 kb/s
Encoded date                             : UTC 2021-03-22 07:41:34
Writing application                      : mkvmerge v47.0.0 ('Black Flag') 64-bit
Writing library                          : libebml v1.3.10 + libmatroska v1.5.2 / Lavf58.29.100
Attachments                              : Aero Matics Bold.ttf / ARCENA.ttf / Brush Strokes.ttf / CONSTANB.TTF / disco.ttf / Eager_Naturalist.ttf / FOTGAKUMARUGOTHICALIASED-2B_0.TTF / Hand Of Sean Pro.otf / Hira v8.ttf / Montara-Gothic.ttf / Montara-Italic_0.ttf / OreMoji-W5.ttf / Psycho Numbers.ttf / RaysHand Regular.ttf

Video
ID                                       : 1
Format                                   : HEVC
Format/Info                              : High Efficiency Video Coding
Format profile                           : Main 10@L5@Main
Codec ID                                 : V_MPEGH/ISO/HEVC
Duration                                 : 24 min 16 s
Bit rate                                 : 2 252 kb/s
Width                                    : 1 920 pixels
Height                                   : 1 080 pixels
Display aspect ratio                     : 16:9
Frame rate mode                          : Variable
Frame rate                               : 23.976 FPS
Color space                              : YUV
Chroma subsampling                       : 4:2:0
Bit depth                                : 10 bits
Bits/(Pixel*Frame)                       : 0.045
Stream size                              : 391 MiB (94%)
Title                                    : [Judas] x265 10b
Writing library                          : x265 3.2+35-acc5d16999e2:[Windows][GCC 9.2.1][64 bit] 10bit
Encoding settings                        : cpuid=1111039 / frame-threads=4 / numa-pools=20,- / wpp / no-pmode / no-pme / no-psnr / no-ssim / log-level=0 / input-csp=1 / input-res=1920x1080 / interlace=0 / total-frames=0 / level-idc=0 / high-tier=1 / uhd-bd=0 / ref=6 / no-allow-non-conformance / no-repeat-headers / annexb / no-aud / no-hrd / info / hash=0 / no-temporal-layers / open-gop / min-keyint=24 / keyint=250 / gop-lookahead=0 / bframes=8 / b-adapt=2 / b-pyramid / bframe-bias=0 / rc-lookahead=100 / lookahead-slices=4 / scenecut=40 / hist-scenecut=0 / radl=0 / no-splice / no-intra-refresh / ctu=64 / min-cu-size=8 / rect / no-amp / max-tu-size=32 / tu-inter-depth=1 / tu-intra-depth=1 / limit-tu=0 / rdoq-level=2 / dynamic-rd=0.00 / no-ssim-rd / signhide / no-tskip / nr-intra=0 / nr-inter=0 / no-constrained-intra / strong-intra-smoothing / max-merge=5 / limit-refs=3 / limit-modes / me=3 / subme=5 / merange=57 / temporal-mvp / no-frame-dup / no-hme / weightp / weightb / no-analyze-src-pics / deblock=0:0 / sao / no-sao-non-deblock / rd=4 / selective-sao=4 / no-early-skip / no-rskip / no-fast-intra / no-tskip-fast / no-cu-lossless / b-intra / no-splitrd-skip / rdpenalty=0 / psy-rd=1.20 / psy-rdoq=1.00 / no-rd-refine / no-lossless / cbqpoffs=0 / crqpoffs=0 / rc=crf / crf=21.5 / qcomp=0.60 / qpstep=4 / stats-write=0 / stats-read=0 / ipratio=1.40 / pbratio=1.30 / aq-mode=3 / aq-strength=0.75 / cutree / zone-count=0 / no-strict-cbr / qg-size=32 / no-rc-grain / qpmax=69 / qpmin=0 / no-const-vbv / sar=0 / overscan=0 / videoformat=5 / range=0 / colorprim=2 / transfer=2 / colormatrix=2 / chromaloc=0 / display-window=0 / cll=0,0 / min-luma=0 / max-luma=1023 / log2-max-poc-lsb=8 / vui-timing-info / vui-hrd-info / slices=1 / no-opt-qp-pps / no-opt-ref-list-length-pps / no-multi-pass-opt-rps / scenecut-bias=0.05 / hist-threshold=0.01 / no-opt-cu-delta-qp / no-aq-motion / no-hdr10 / no-hdr10-opt / no-dhdr10-opt / no-idr-recovery-sei / analysis-reuse-level=0 / analysis-save-reuse-level=0 / analysis-load-reuse-level=0 / scale-factor=0 / refine-intra=0 / refine-inter=0 / refine-mv=1 / refine-ctu-distortion=0 / limit-sao / ctu-info=0 / no-lowpass-dct / refine-analysis-type=0 / copy-pic=1 / max-ausize-factor=1.0 / no-dynamic-refine / no-single-sei / no-hevc-aq / no-svt / no-field / qp-adaptation-range=3.00 / no-scenecut-aware-qpconformance-window-offsets / right=0 / bottom=0
Default                                  : No
Forced                                   : No
Color range                              : Limited

Audio
ID                                       : 2
Format                                   : Opus
Codec ID                                 : A_OPUS
Duration                                 : 24 min 11 s
Bit rate                                 : 107 kb/s
Channel(s)                               : 2 channels
Channel layout                           : L R
Sampling rate                            : 48.0 kHz
Frame rate                               : 49.998 FPS (960 SPF)
Compression mode                         : Lossy
Stream size                              : 18.5 MiB (4%)
Title                                    : [Judas] JAP Stereo (Opus 112Kbps)
Writing library                          : Lavc58.54.100 libopus
Language                                 : Japanese
Default                                  : No
Forced                                   : No

Text #1
ID                                       : 3
Format                                   : ASS
Codec ID                                 : S_TEXT/ASS
Codec ID/Info                            : Advanced Sub Station Alpha
Duration                                 : 24 min 5 s
Bit rate                                 : 2 611 b/s
Count of elements                        : 4235
Compression mode                         : Lossless
Stream size                              : 461 KiB (0%)
Title                                    : English [Full] (0x539/kBaraka)
Language                                 : English
Default                                  : Yes
Forced                                   : Yes

Text #2
ID                                       : 4
Format                                   : ASS
Codec ID                                 : S_TEXT/ASS
Codec ID/Info                            : Advanced Sub Station Alpha
Duration                                 : 24 min 3 s
Bit rate                                 : 2 478 b/s
Count of elements                        : 3831
Compression mode                         : Lossless
Stream size                              : 437 KiB (0%)
Title                                    : English [Signs/Songs] (0x539/kBaraka)
Language                                 : Japanese
Default                                  : No
Forced                                   : No

Text #3
ID                                       : 5
Format                                   : ASS
Codec ID                                 : S_TEXT/ASS
Codec ID/Info                            : Advanced Sub Station Alpha
Duration                                 : 24 min 5 s
Bit rate                                 : 165 b/s
Count of elements                        : 417
Compression mode                         : Lossless
Stream size                              : 29.3 KiB (0%)
Title                                    : French
Language                                 : French
Default                                  : No
Forced                                   : No

Text #4
ID                                       : 6
Format                                   : ASS
Codec ID                                 : S_TEXT/ASS
Codec ID/Info                            : Advanced Sub Station Alpha
Duration                                 : 24 min 5 s
Bit rate                                 : 174 b/s
Count of elements                        : 486
Compression mode                         : Lossless
Stream size                              : 30.8 KiB (0%)
Title                                    : German
Language                                 : German
Default                                  : No
Forced                                   : No

Text #5
ID                                       : 7
Format                                   : ASS
Codec ID                                 : S_TEXT/ASS
Codec ID/Info                            : Advanced Sub Station Alpha
Duration                                 : 24 min 5 s
Bit rate                                 : 177 b/s
Count of elements                        : 424
Compression mode                         : Lossless
Stream size                              : 31.2 KiB (0%)
Title                                    : Italian
Language                                 : Italian
Default                                  : No
Forced                                   : No

Text #6
ID                                       : 8
Format                                   : ASS
Codec ID                                 : S_TEXT/ASS
Codec ID/Info                            : Advanced Sub Station Alpha
Duration                                 : 24 min 5 s
Bit rate                                 : 152 b/s
Count of elements                        : 400
Compression mode                         : Lossless
Stream size                              : 26.8 KiB (0%)
Title                                    : Spanish[ESP]
Language                                 : Spanish
Default                                  : No
Forced                                   : No

Text #7
ID                                       : 9
Format                                   : ASS
Codec ID                                 : S_TEXT/ASS
Codec ID/Info                            : Advanced Sub Station Alpha
Duration                                 : 24 min 5 s
Bit rate                                 : 152 b/s
Count of elements                        : 400
Compression mode                         : Lossless
Stream size                              : 26.9 KiB (0%)
Title                                    : Spanish[LAT]
Language                                 : Spanish
Default                                  : No
Forced                                   : No

Text #8
ID                                       : 10
Format                                   : ASS
Codec ID                                 : S_TEXT/ASS
Codec ID/Info                            : Advanced Sub Station Alpha
Duration                                 : 24 min 8 s
Bit rate                                 : 171 b/s
Count of elements                        : 425
Compression mode                         : Lossless
Stream size                              : 30.3 KiB (0%)
Title                                    : Brazilian Portuguese
Language                                 : Portuguese
Default                                  : No
Forced                                   : No

Text #9
ID                                       : 11
Format                                   : ASS
Codec ID                                 : S_TEXT/ASS
Codec ID/Info                            : Advanced Sub Station Alpha
Duration                                 : 24 min 5 s
Bit rate                                 : 207 b/s
Count of elements                        : 423
Compression mode                         : Lossless
Stream size                              : 36.6 KiB (0%)
Title                                    : Russian
Language                                 : Russian
Default                                  : No
Forced                                   : No

Text #10
ID                                       : 12
Format                                   : ASS
Codec ID                                 : S_TEXT/ASS
Codec ID/Info                            : Advanced Sub Station Alpha
Duration                                 : 24 min 5 s
Bit rate                                 : 212 b/s
Count of elements                        : 420
Compression mode                         : Lossless
Stream size                              : 37.6 KiB (0%)
Title                                    : Arabic
Language                                 : Arabic
Default                                  : No
Forced                                   : No

Text #11
ID                                       : 13
Format                                   : PGS
Muxing mode                              : zlib
Codec ID                                 : S_HDMV/PGS
Codec ID/Info                            : Picture based subtitle format used on BDs/HD-DVDs
Duration                                 : 24 min 9 s
Bit rate                                 : 61.5 kb/s
Count of elements                        : 913
Stream size                              : 10.6 MiB (3%)
Title                                    : English [Full] (PGS)
Language                                 : English
Default                                  : No
Forced                                   : No

Text #12
ID                                       : 14
Format                                   : PGS
Muxing mode                              : zlib
Codec ID                                 : S_HDMV/PGS
Codec ID/Info                            : Picture based subtitle format used on BDs/HD-DVDs
Duration                                 : 24 min 9 s
Bit rate                                 : 10.7 kb/s
Count of elements                        : 139
Stream size                              : 1.85 MiB (0%)
Title                                    : English [Signs/Songs] (PGS)
Language                                 : Japanese
Default                                  : No
Forced                                   : No

Menu
00:00:00.000                             : :Chapter 07 / :Chapter 08
00:00:56.056                             : :Chapter 09
00:02:26.021                             : :Chapter 10
00:12:15.026                             : :Chapter 11
00:22:25.052                             : :Chapter 12
00:23:55.017                             : :Chapter 13

Other Files in this Torrent
Mob Psycho 100 S1/Mob Psycho 100 - S01E04.mkv
beta
Anime DDL+NZB mirror
Current Time: 22/04/2024 06:21



About/FAQs

Discord