Kino no Tabi The Beautiful World - 12 - A Peaceful Land.mkv


File Size350.5 MB (367,553,525 bytes)
DownloadClickNUpload | DailyUploads | DownloadGG | GoFile | KrakenFiles | MdiaLoad | MultiUp
  • BdUpload
  • DownAce
  • Fichier
  • FileCloud
  • Filerio
  • FilesCdn
  • IndiShare
  • Kbagi
  • Turbobit
  • UpToBox
  • Uppit
| Uppit
HashesCRC32: 5F9169BA, MD5: B8645B141259390D223EAEFCF3A3B39D, SHA1: 0700573195F1A15E02DD085137A9FD99DBA2BA42, SHA256: B3B855411E983ADD86864ABCFF9E4BF255EE676A2886CC337712102038C6A443, ED2K: 9A2384F51978307190B51DC9DEBAA429
Screenshots
screenshotscreenshotscreenshotscreenshotscreenshot
SubtitlesAll Attachments | eng [ASS]
Additional Info
General
Unique ID                                : 328194989349888370021169401342808529698 (0xF6E80E46336B0E50250191B42D079B22)
Complete name                            : Kino no Tabi The Beautiful World - 12 - A Peaceful Land.mkv
Format                                   : Matroska
Format version                           : Version 4
File size                                : 351 MiB
Duration                                 : 24 min 22 s
Overall bit rate                         : 2 011 kb/s
Frame rate                               : 23.976 FPS
Encoded date                             : 2024-04-01 03:23:13 UTC
Writing application                      : mkvmerge v83.0 ('Circle Of Friends') 64-bit
Writing library                          : libebml v1.4.5 + libmatroska v1.7.1
Attachments                              : corbelb.ttf / CUSHNGH.TTF / RuzickaTypeK.ttf / segoeprb.ttf / corbel.ttf

Video
ID                                       : 1
Format                                   : AV1
Format/Info                              : AOMedia Video 1
Format profile                           : Main@L4.0
Codec ID                                 : V_AV1
Duration                                 : 24 min 22 s
Bit rate                                 : 1 895 kb/s
Width                                    : 1 920 pixels
Height                                   : 1 080 pixels
Display aspect ratio                     : 16:9
Frame rate mode                          : Constant
Frame rate                               : 23.976 (24000/1001) FPS
Color space                              : YUV
Chroma subsampling                       : 4:2:0
Bit depth                                : 10 bits
Bits/(Pixel*Frame)                       : 0.038
Stream size                              : 330 MiB (94%)
Language                                 : English
Default                                  : Yes
Forced                                   : No
Color range                              : Limited
Color primaries                          : BT.709
Transfer characteristics                 : BT.709
Matrix coefficients                      : BT.709

Audio
ID                                       : 2
Format                                   : Opus
Codec ID                                 : A_OPUS
Duration                                 : 24 min 22 s
Bit rate                                 : 109 kb/s
Channel(s)                               : 2 channels
Channel layout                           : L R
Sampling rate                            : 48.0 kHz
Frame rate                               : 50.000 FPS (960 SPF)
Compression mode                         : Lossy
Stream size                              : 18.9 MiB (5%)
Writing library                          : Lavc60.36.100 libopus
Language                                 : Japanese
Default                                  : Yes
Forced                                   : No

Text
ID                                       : 3
Format                                   : ASS
Codec ID                                 : S_TEXT/ASS
Codec ID/Info                            : Advanced Sub Station Alpha
Duration                                 : 24 min 11 s
Bit rate                                 : 112 b/s
Frame rate                               : 0.216 FPS
Count of elements                        : 314
Compression mode                         : Lossless
Stream size                              : 20.0 KiB (0%)
Language                                 : English
Default                                  : Yes
Forced                                   : No

Menu
00:00:00.000                             : Opening
00:01:30.048                             : Part A
00:10:31.005                             : Part B
00:22:30.015                             : Ending
00:23:50.012                             : Preview

Other Files in this Torrent
Kino no Tabi The Beautiful World - 12 - A Peaceful Land.mkv
beta
Anime DDL+NZB mirror
Current Time: 14/06/2024 09:01



About/FAQs

Discord