Kino no Tabi The Beautiful World - 05 - Three Men Along the Rails.mkv


File Size469.5 MB (492,265,916 bytes)
DownloadClickNUpload | DailyUploads | DownloadGG | GoFile | KrakenFiles | MdiaLoad | MultiUp
  • BdUpload
  • DownAce
  • Fichier
  • FileCloud
  • Filerio
  • FilesCdn
  • IndiShare
  • Kbagi
  • Turbobit
  • UpToBox
  • Uppit
| Uppit
HashesCRC32: 6B08AF45, MD5: 7CDD5374D9329FB16E1FF94A4CD7CC6F, SHA1: 1D87C1F39EF2193D594E745C0991C462766978F4, SHA256: 80AF2D33B52AB79FBAE0A97EFB5D311ED5B2BEEAF0DBBFD26B0DB5F123F4BA24, ED2K: B4547BDADD37F1DE3A56597133065E19
Screenshots
screenshotscreenshotscreenshotscreenshotscreenshot
SubtitlesAll Attachments | eng [ASS]
Additional Info
General
Unique ID                                : 245607554377096433359300424285621112966 (0xB8C64B5ACCF1AE66DEE51AAB9C34D086)
Complete name                            : Kino no Tabi The Beautiful World - 05 - Three Men Along the Rails.mkv
Format                                   : Matroska
Format version                           : Version 4
File size                                : 469 MiB
Duration                                 : 24 min 22 s
Overall bit rate                         : 2 693 kb/s
Frame rate                               : 23.976 FPS
Encoded date                             : 2024-04-01 03:22:11 UTC
Writing application                      : mkvmerge v83.0 ('Circle Of Friends') 64-bit
Writing library                          : libebml v1.4.5 + libmatroska v1.7.1
Attachments                              : CUSHNGH.TTF / RuzickaTypeK.ttf / segoeprb.ttf / corbel.ttf / corbelb.ttf

Video
ID                                       : 1
Format                                   : AV1
Format/Info                              : AOMedia Video 1
Format profile                           : Main@L4.0
Codec ID                                 : V_AV1
Duration                                 : 24 min 22 s
Bit rate                                 : 2 575 kb/s
Width                                    : 1 920 pixels
Height                                   : 1 080 pixels
Display aspect ratio                     : 16:9
Frame rate mode                          : Constant
Frame rate                               : 23.976 (24000/1001) FPS
Color space                              : YUV
Chroma subsampling                       : 4:2:0
Bit depth                                : 10 bits
Bits/(Pixel*Frame)                       : 0.052
Stream size                              : 449 MiB (96%)
Language                                 : English
Default                                  : Yes
Forced                                   : No
Color range                              : Limited
Color primaries                          : BT.709
Transfer characteristics                 : BT.709
Matrix coefficients                      : BT.709

Audio
ID                                       : 2
Format                                   : Opus
Codec ID                                 : A_OPUS
Duration                                 : 24 min 22 s
Bit rate                                 : 111 kb/s
Channel(s)                               : 2 channels
Channel layout                           : L R
Sampling rate                            : 48.0 kHz
Frame rate                               : 50.000 FPS (960 SPF)
Compression mode                         : Lossy
Stream size                              : 19.3 MiB (4%)
Writing library                          : Lavc60.36.100 libopus
Language                                 : Japanese
Default                                  : Yes
Forced                                   : No

Text
ID                                       : 3
Format                                   : ASS
Codec ID                                 : S_TEXT/ASS
Codec ID/Info                            : Advanced Sub Station Alpha
Duration                                 : 24 min 12 s
Bit rate                                 : 148 b/s
Frame rate                               : 0.294 FPS
Count of elements                        : 427
Compression mode                         : Lossless
Stream size                              : 26.4 KiB (0%)
Language                                 : English
Default                                  : Yes
Forced                                   : No

Menu
00:00:00.000                             : Opening
00:01:30.048                             : Part A
00:11:13.089                             : Part B
00:22:30.099                             : Ending
00:23:50.095                             : Preview

Other Files in this Torrent
Kino no Tabi The Beautiful World - 05 - Three Men Along the Rails.mkv
beta
Anime DDL+NZB mirror
Current Time: 14/06/2024 07:58



About/FAQs

Discord