Kino no Tabi The Beautiful World - 03 - Land of Prophecies.mkv


File Size312.2 MB (327,407,258 bytes)
DownloadClickNUpload | DailyUploads | DownloadGG | GoFile | KrakenFiles | MdiaLoad | MultiUp
  • BdUpload
  • DownAce
  • Fichier
  • FileCloud
  • Filerio
  • FilesCdn
  • IndiShare
  • Kbagi
  • Turbobit
  • UpToBox
  • Uppit
| Uppit
HashesCRC32: C9F14415, MD5: 8B0992E6794F243E2535E2B245A015A1, SHA1: E93C5C9AB71526E5E3525AADBAB05E78B1521ABB, SHA256: 2A42CB38C1F0C5F910A52C11BBCBF82E47B7F0FAE9A7CCC8A41AEC3B9CCBAE22, ED2K: D71C3232DD4CE0B2C044F8B97B13E3C4
Screenshots
screenshotscreenshotscreenshotscreenshotscreenshot
SubtitlesAll Attachments | eng [ASS]
Additional Info
General
Unique ID                                : 34059748769348666331301869674879203196 (0x199FAB43EEC00F71851CD1CA122F377C)
Complete name                            : Kino no Tabi The Beautiful World - 03 - Land of Prophecies.mkv
Format                                   : Matroska
Format version                           : Version 4
File size                                : 312 MiB
Duration                                 : 24 min 22 s
Overall bit rate                         : 1 791 kb/s
Frame rate                               : 23.976 FPS
Encoded date                             : 2024-04-01 03:21:53 UTC
Writing application                      : mkvmerge v83.0 ('Circle Of Friends') 64-bit
Writing library                          : libebml v1.4.5 + libmatroska v1.7.1
Attachments                              : corbelb.ttf / CUSHNGH.TTF / RuzickaTypeK.ttf / segoeprb.ttf / corbel.ttf

Video
ID                                       : 1
Format                                   : AV1
Format/Info                              : AOMedia Video 1
Format profile                           : Main@L4.0
Codec ID                                 : V_AV1
Duration                                 : 24 min 22 s
Bit rate                                 : 1 672 kb/s
Width                                    : 1 920 pixels
Height                                   : 1 080 pixels
Display aspect ratio                     : 16:9
Frame rate mode                          : Constant
Frame rate                               : 23.976 (24000/1001) FPS
Color space                              : YUV
Chroma subsampling                       : 4:2:0
Bit depth                                : 10 bits
Bits/(Pixel*Frame)                       : 0.034
Stream size                              : 291 MiB (93%)
Language                                 : English
Default                                  : Yes
Forced                                   : No
Color range                              : Limited
Color primaries                          : BT.709
Transfer characteristics                 : BT.709
Matrix coefficients                      : BT.709

Audio
ID                                       : 2
Format                                   : Opus
Codec ID                                 : A_OPUS
Duration                                 : 24 min 22 s
Bit rate                                 : 111 kb/s
Channel(s)                               : 2 channels
Channel layout                           : L R
Sampling rate                            : 48.0 kHz
Frame rate                               : 50.000 FPS (960 SPF)
Compression mode                         : Lossy
Stream size                              : 19.4 MiB (6%)
Writing library                          : Lavc60.36.100 libopus
Language                                 : Japanese
Default                                  : Yes
Forced                                   : No

Text
ID                                       : 3
Format                                   : ASS
Codec ID                                 : S_TEXT/ASS
Codec ID/Info                            : Advanced Sub Station Alpha
Duration                                 : 24 min 13 s
Bit rate                                 : 153 b/s
Frame rate                               : 0.278 FPS
Count of elements                        : 404
Compression mode                         : Lossless
Stream size                              : 27.2 KiB (0%)
Language                                 : English
Default                                  : Yes
Forced                                   : No

Menu
00:00:00.000                             : Opening
00:01:30.048                             : Part A
00:13:29.058                             : Part B
00:22:30.099                             : Ending
00:23:50.095                             : Preview

Other Files in this Torrent
Kino no Tabi The Beautiful World - 03 - Land of Prophecies.mkv
beta
Anime DDL+NZB mirror
Current Time: 14/06/2024 09:39



About/FAQs

Discord