Kino no Tabi The Beautiful World - 07 - Coliseum Part 2.mkv


File Size304.2 MB (318,931,732 bytes)
DownloadClickNUpload | DailyUploads | DownloadGG | GoFile | KrakenFiles | MdiaLoad | MultiUp
  • BdUpload
  • DownAce
  • Fichier
  • FileCloud
  • Filerio
  • FilesCdn
  • IndiShare
  • Kbagi
  • Turbobit
  • UpToBox
  • Uppit
| Uppit
HashesCRC32: 3643781D, MD5: E03210A9D1FE22CF074518BD9F2CD83E, SHA1: 55BC28A4D27706FA37E41C5E978CCBCC8ADD0DB4, SHA256: A089E6D04058E4B577AD84C4F10C2DC51DF523880F06A5898340D0CBE2DED45F, ED2K: 2257C653DA9347BE6F48A7C4F474F39F
Screenshots
screenshotscreenshotscreenshotscreenshotscreenshot
SubtitlesAll Attachments | eng [ASS]
Additional Info
General
Unique ID                                : 59646470642771599170274065488463558559 (0x2CDF7E0D3121FE6683A792CC58D8779F)
Complete name                            : Kino no Tabi The Beautiful World - 07 - Coliseum Part 2.mkv
Format                                   : Matroska
Format version                           : Version 4
File size                                : 304 MiB
Duration                                 : 24 min 22 s
Overall bit rate                         : 1 745 kb/s
Frame rate                               : 23.976 FPS
Encoded date                             : 2024-04-01 03:22:31 UTC
Writing application                      : mkvmerge v83.0 ('Circle Of Friends') 64-bit
Writing library                          : libebml v1.4.5 + libmatroska v1.7.1
Attachments                              : corbel.ttf / corbelb.ttf / CUSHNGH.TTF / RuzickaTypeK.ttf / segoeprb.ttf

Video
ID                                       : 1
Format                                   : AV1
Format/Info                              : AOMedia Video 1
Format profile                           : Main@L4.0
Codec ID                                 : V_AV1
Duration                                 : 24 min 22 s
Bit rate                                 : 1 629 kb/s
Width                                    : 1 920 pixels
Height                                   : 1 080 pixels
Display aspect ratio                     : 16:9
Frame rate mode                          : Constant
Frame rate                               : 23.976 (24000/1001) FPS
Color space                              : YUV
Chroma subsampling                       : 4:2:0
Bit depth                                : 10 bits
Bits/(Pixel*Frame)                       : 0.033
Stream size                              : 284 MiB (93%)
Language                                 : English
Default                                  : Yes
Forced                                   : No
Color range                              : Limited
Color primaries                          : BT.709
Transfer characteristics                 : BT.709
Matrix coefficients                      : BT.709

Audio
ID                                       : 2
Format                                   : Opus
Codec ID                                 : A_OPUS
Duration                                 : 24 min 22 s
Bit rate                                 : 108 kb/s
Channel(s)                               : 2 channels
Channel layout                           : L R
Sampling rate                            : 48.0 kHz
Frame rate                               : 50.000 FPS (960 SPF)
Compression mode                         : Lossy
Stream size                              : 18.8 MiB (6%)
Writing library                          : Lavc60.36.100 libopus
Language                                 : Japanese
Default                                  : Yes
Forced                                   : No

Text
ID                                       : 3
Format                                   : ASS
Codec ID                                 : S_TEXT/ASS
Codec ID/Info                            : Advanced Sub Station Alpha
Duration                                 : 24 min 10 s
Bit rate                                 : 109 b/s
Frame rate                               : 0.236 FPS
Count of elements                        : 342
Compression mode                         : Lossless
Stream size                              : 19.4 KiB (0%)
Language                                 : English
Default                                  : Yes
Forced                                   : No

Menu
00:00:00.000                             : Opening
00:01:30.048                             : Part A
00:13:22.093                             : Part B
00:22:30.099                             : Ending
00:23:50.095                             : Preview

Other Files in this Torrent
Kino no Tabi The Beautiful World - 07 - Coliseum Part 2.mkv
beta
Anime DDL+NZB mirror
Current Time: 14/06/2024 10:08



About/FAQs

Discord