Kino no Tabi The Beautiful World - 04 - Land of Adults.mkv


File Size377.5 MB (395,867,547 bytes)
DownloadClickNUpload | DailyUploads | DownloadGG | GoFile | KrakenFiles | MdiaLoad | MultiUp
  • BdUpload
  • DownAce
  • Fichier
  • FileCloud
  • Filerio
  • FilesCdn
  • IndiShare
  • Kbagi
  • Turbobit
  • UpToBox
  • Uppit
| Uppit
HashesCRC32: B08A72E1, MD5: 86CDCA5E83EB6EFBCD7333016E6F9CF4, SHA1: 8F6D22C044CE95FF969181D41C528325FB6603E6, SHA256: D4DD2E6438D6988D070B95430FB650BB560137A21D8173953CC0B494E8B62B13, ED2K: 0EF531BFB27C354E333D49BD1DCF9E4C
Screenshots
screenshotscreenshotscreenshotscreenshotscreenshot
SubtitlesAll Attachments | eng [ASS]
Additional Info
General
Unique ID                                : 209277352828109157660981222549299859518 (0x9D715A1FE8676E8239CC2060BB8F103E)
Complete name                            : Kino no Tabi The Beautiful World - 04 - Land of Adults.mkv
Format                                   : Matroska
Format version                           : Version 4
File size                                : 378 MiB
Duration                                 : 24 min 22 s
Overall bit rate                         : 2 166 kb/s
Frame rate                               : 23.976 FPS
Encoded date                             : 2024-04-01 03:22:01 UTC
Writing application                      : mkvmerge v83.0 ('Circle Of Friends') 64-bit
Writing library                          : libebml v1.4.5 + libmatroska v1.7.1
Attachments                              : corbel.ttf / corbelb.ttf / CUSHNGH.TTF / RuzickaTypeK.ttf / segoeprb.ttf

Video
ID                                       : 1
Format                                   : AV1
Format/Info                              : AOMedia Video 1
Format profile                           : Main@L4.0
Codec ID                                 : V_AV1
Duration                                 : 24 min 22 s
Bit rate                                 : 2 050 kb/s
Width                                    : 1 920 pixels
Height                                   : 1 080 pixels
Display aspect ratio                     : 16:9
Frame rate mode                          : Constant
Frame rate                               : 23.976 (24000/1001) FPS
Color space                              : YUV
Chroma subsampling                       : 4:2:0
Bit depth                                : 10 bits
Bits/(Pixel*Frame)                       : 0.041
Stream size                              : 357 MiB (95%)
Language                                 : English
Default                                  : Yes
Forced                                   : No
Color range                              : Limited
Color primaries                          : BT.709
Transfer characteristics                 : BT.709
Matrix coefficients                      : BT.709

Audio
ID                                       : 2
Format                                   : Opus
Codec ID                                 : A_OPUS
Duration                                 : 24 min 22 s
Bit rate                                 : 108 kb/s
Channel(s)                               : 2 channels
Channel layout                           : L R
Sampling rate                            : 48.0 kHz
Frame rate                               : 50.000 FPS (960 SPF)
Compression mode                         : Lossy
Stream size                              : 18.9 MiB (5%)
Writing library                          : Lavc60.36.100 libopus
Language                                 : Japanese
Default                                  : Yes
Forced                                   : No

Text
ID                                       : 3
Format                                   : ASS
Codec ID                                 : S_TEXT/ASS
Codec ID/Info                            : Advanced Sub Station Alpha
Duration                                 : 24 min 13 s
Bit rate                                 : 144 b/s
Frame rate                               : 0.279 FPS
Count of elements                        : 405
Compression mode                         : Lossless
Stream size                              : 25.6 KiB (0%)
Language                                 : English
Default                                  : Yes
Forced                                   : No

Menu
00:00:00.000                             : Opening
00:01:30.048                             : Part A
00:12:45.014                             : Part B
00:22:30.015                             : Ending
00:23:50.012                             : Preview

Other Files in this Torrent
Kino no Tabi The Beautiful World - 04 - Land of Adults.mkv
beta
Anime DDL+NZB mirror
Current Time: 20/07/2024 21:43



About/FAQs

Discord