Kino no Tabi The Beautiful World - 10 - A Tale of Mechanical Dolls.mkv


File Size320.8 MB (336,418,779 bytes)
DownloadClickNUpload | DailyUploads | DownloadGG | GoFile | KrakenFiles | MdiaLoad | MultiUp
  • BdUpload
  • DownAce
  • Fichier
  • FileCloud
  • Filerio
  • FilesCdn
  • IndiShare
  • Kbagi
  • Turbobit
  • UpToBox
  • Uppit
| Uppit
HashesCRC32: 53B02C30, MD5: 772E566E76FD1C37191EA86949DE5645, SHA1: 7E18D03EE646F1908E1661990C3DD935A525DEE8, SHA256: A37247A7B6EAB2E3B4D7C78385AA7C2644A5C3122A2F70126AF37A1C2D7BCE76, ED2K: 070713EEBE7C71D34A863EC3E429779F
Screenshots
screenshotscreenshotscreenshotscreenshotscreenshot
SubtitlesAll Attachments | eng [ASS]
Additional Info
General
Unique ID                                : 238032160873567751153778740510304937195 (0xB313539E5FFE9978875BC3C02212A4EB)
Complete name                            : Kino no Tabi The Beautiful World - 10 - A Tale of Mechanical Dolls.mkv
Format                                   : Matroska
Format version                           : Version 4
File size                                : 321 MiB
Duration                                 : 24 min 22 s
Overall bit rate                         : 1 841 kb/s
Frame rate                               : 23.976 FPS
Encoded date                             : 2024-04-01 03:22:57 UTC
Writing application                      : mkvmerge v83.0 ('Circle Of Friends') 64-bit
Writing library                          : libebml v1.4.5 + libmatroska v1.7.1
Attachments                              : corbel.ttf / corbelb.ttf / CUSHNGH.TTF / RuzickaTypeK.ttf / segoeprb.ttf

Video
ID                                       : 1
Format                                   : AV1
Format/Info                              : AOMedia Video 1
Format profile                           : Main@L4.0
Codec ID                                 : V_AV1
Duration                                 : 24 min 22 s
Bit rate                                 : 1 725 kb/s
Width                                    : 1 920 pixels
Height                                   : 1 080 pixels
Display aspect ratio                     : 16:9
Frame rate mode                          : Constant
Frame rate                               : 23.976 (24000/1001) FPS
Color space                              : YUV
Chroma subsampling                       : 4:2:0
Bit depth                                : 10 bits
Bits/(Pixel*Frame)                       : 0.035
Stream size                              : 301 MiB (94%)
Language                                 : English
Default                                  : Yes
Forced                                   : No
Color range                              : Limited
Color primaries                          : BT.709
Transfer characteristics                 : BT.709
Matrix coefficients                      : BT.709

Audio
ID                                       : 2
Format                                   : Opus
Codec ID                                 : A_OPUS
Duration                                 : 24 min 22 s
Bit rate                                 : 108 kb/s
Channel(s)                               : 2 channels
Channel layout                           : L R
Sampling rate                            : 48.0 kHz
Frame rate                               : 50.000 FPS (960 SPF)
Compression mode                         : Lossy
Stream size                              : 18.9 MiB (6%)
Writing library                          : Lavc60.36.100 libopus
Language                                 : Japanese
Default                                  : Yes
Forced                                   : No

Text
ID                                       : 3
Format                                   : ASS
Codec ID                                 : S_TEXT/ASS
Codec ID/Info                            : Advanced Sub Station Alpha
Duration                                 : 24 min 11 s
Bit rate                                 : 129 b/s
Frame rate                               : 0.272 FPS
Count of elements                        : 395
Compression mode                         : Lossless
Stream size                              : 22.9 KiB (0%)
Language                                 : English
Default                                  : Yes
Forced                                   : No

Menu
00:00:00.000                             : Opening
00:01:30.048                             : Part A
00:11:58.051                             : Part B
00:22:30.015                             : Ending
00:23:50.012                             : Preview

Other Files in this Torrent
Kino no Tabi The Beautiful World - 10 - A Tale of Mechanical Dolls.mkv
beta
Anime DDL+NZB mirror
Current Time: 14/06/2024 10:06



About/FAQs

Discord