Kino no Tabi The Beautiful World - 08 - Land of Wizards.mkv


File Size350.0 MB (366,961,790 bytes)
DownloadClickNUpload | DailyUploads | DownloadGG | GoFile | KrakenFiles | MdiaLoad | MultiUp
  • BdUpload
  • DownAce
  • Fichier
  • FileCloud
  • Filerio
  • FilesCdn
  • IndiShare
  • Kbagi
  • Turbobit
  • UpToBox
  • Uppit
| Uppit
HashesCRC32: 0A6D442F, MD5: 0C0434A500441750DB19A980AA80261A, SHA1: 9D80750FE043514457CDFA4528347B65A500FDF7, SHA256: 3486FBC9DFDDA4E7585DA7E47471912AD6E8A0F80C80234ED706EA651DE8DA95, ED2K: 2CFB8DB00D87E4A870786AE4898B70A2
Screenshots
screenshotscreenshotscreenshotscreenshotscreenshot
SubtitlesAll Attachments | eng [ASS]
Additional Info
General
Unique ID                                : 34607740016679218857208184037462912334 (0x1A093551E018A4FB10F07C3DE9E62D4E)
Complete name                            : Kino no Tabi The Beautiful World - 08 - Land of Wizards.mkv
Format                                   : Matroska
Format version                           : Version 4
File size                                : 350 MiB
Duration                                 : 24 min 22 s
Overall bit rate                         : 2 008 kb/s
Frame rate                               : 23.976 FPS
Encoded date                             : 2024-04-01 03:22:38 UTC
Writing application                      : mkvmerge v83.0 ('Circle Of Friends') 64-bit
Writing library                          : libebml v1.4.5 + libmatroska v1.7.1
Attachments                              : corbelb.ttf / CUSHNGH.TTF / RuzickaTypeK.ttf / segoeprb.ttf / corbel.ttf

Video
ID                                       : 1
Format                                   : AV1
Format/Info                              : AOMedia Video 1
Format profile                           : Main@L4.0
Codec ID                                 : V_AV1
Duration                                 : 24 min 22 s
Bit rate                                 : 1 892 kb/s
Width                                    : 1 920 pixels
Height                                   : 1 080 pixels
Display aspect ratio                     : 16:9
Frame rate mode                          : Constant
Frame rate                               : 23.976 (24000/1001) FPS
Color space                              : YUV
Chroma subsampling                       : 4:2:0
Bit depth                                : 10 bits
Bits/(Pixel*Frame)                       : 0.038
Stream size                              : 330 MiB (94%)
Language                                 : English
Default                                  : Yes
Forced                                   : No
Color range                              : Limited
Color primaries                          : BT.709
Transfer characteristics                 : BT.709
Matrix coefficients                      : BT.709

Audio
ID                                       : 2
Format                                   : Opus
Codec ID                                 : A_OPUS
Duration                                 : 24 min 22 s
Bit rate                                 : 108 kb/s
Channel(s)                               : 2 channels
Channel layout                           : L R
Sampling rate                            : 48.0 kHz
Frame rate                               : 50.000 FPS (960 SPF)
Compression mode                         : Lossy
Stream size                              : 18.8 MiB (5%)
Writing library                          : Lavc60.36.100 libopus
Language                                 : Japanese
Default                                  : Yes
Forced                                   : No

Text
ID                                       : 3
Format                                   : ASS
Codec ID                                 : S_TEXT/ASS
Codec ID/Info                            : Advanced Sub Station Alpha
Duration                                 : 24 min 11 s
Bit rate                                 : 138 b/s
Frame rate                               : 0.293 FPS
Count of elements                        : 425
Compression mode                         : Lossless
Stream size                              : 24.5 KiB (0%)
Language                                 : English
Default                                  : Yes
Forced                                   : No

Menu
00:00:00.000                             : Opening
00:01:30.048                             : Part A
00:08:11.991                             : Part B
00:22:30.099                             : Ending
00:23:50.095                             : Preview

Other Files in this Torrent
Kino no Tabi The Beautiful World - 08 - Land of Wizards.mkv
beta
Anime DDL+NZB mirror
Current Time: 14/06/2024 09:12



About/FAQs

Discord