Kino no Tabi The Beautiful World - 02 - A Tale of Feeding Off Others.mkv


File Size254.4 MB (266,769,364 bytes)
DownloadClickNUpload | DailyUploads | DownloadGG | GoFile | KrakenFiles | MdiaLoad | MultiUp
  • BdUpload
  • DownAce
  • Fichier
  • FileCloud
  • Filerio
  • FilesCdn
  • IndiShare
  • Kbagi
  • Turbobit
  • UpToBox
  • Uppit
| Uppit
HashesCRC32: 4DACA54F, MD5: 7FB43C7357BEF63224BC2B1AC86F071F, SHA1: C1CC82843690D2E1C0BCF74D0AE9C9A17C9BF749, SHA256: CC57DF778FD39C83956BCD8FE3B0615E9AE78E5B6132291B65F6EAAD6179989D, ED2K: D977824FFABEF2DB49B87EEF93FAD517
Screenshots
screenshotscreenshotscreenshotscreenshotscreenshot
SubtitlesAll Attachments | eng [ASS]
Additional Info
General
Unique ID                                : 5912132800212049696790538060663673043 (0x472A2A6EBC6400389EF185387C8D0D3)
Complete name                            : Kino no Tabi The Beautiful World - 02 - A Tale of Feeding Off Others.mkv
Format                                   : Matroska
Format version                           : Version 4
File size                                : 254 MiB
Duration                                 : 24 min 22 s
Overall bit rate                         : 1 460 kb/s
Frame rate                               : 23.976 FPS
Encoded date                             : 2024-04-01 03:21:42 UTC
Writing application                      : mkvmerge v83.0 ('Circle Of Friends') 64-bit
Writing library                          : libebml v1.4.5 + libmatroska v1.7.1
Attachments                              : CUSHNGH.TTF / RuzickaTypeK.ttf / segoeprb.ttf / corbel.ttf / corbelb.ttf

Video
ID                                       : 1
Format                                   : AV1
Format/Info                              : AOMedia Video 1
Format profile                           : Main@L4.0
Codec ID                                 : V_AV1
Duration                                 : 24 min 22 s
Bit rate                                 : 1 348 kb/s
Width                                    : 1 920 pixels
Height                                   : 1 080 pixels
Display aspect ratio                     : 16:9
Frame rate mode                          : Constant
Frame rate                               : 23.976 (24000/1001) FPS
Color space                              : YUV
Chroma subsampling                       : 4:2:0
Bit depth                                : 10 bits
Bits/(Pixel*Frame)                       : 0.027
Stream size                              : 235 MiB (92%)
Default                                  : Yes
Forced                                   : No
Color range                              : Limited
Color primaries                          : BT.709
Transfer characteristics                 : BT.709
Matrix coefficients                      : BT.709

Audio
ID                                       : 2
Format                                   : Opus
Codec ID                                 : A_OPUS
Duration                                 : 24 min 22 s
Bit rate                                 : 104 kb/s
Channel(s)                               : 2 channels
Channel layout                           : L R
Sampling rate                            : 48.0 kHz
Frame rate                               : 50.000 FPS (960 SPF)
Compression mode                         : Lossy
Stream size                              : 18.0 MiB (7%)
Title                                    : Japanese 2.0 | Opus 96
Writing library                          : Lavc60.36.100 libopus
Language                                 : Japanese
Default                                  : Yes
Forced                                   : No

Text
ID                                       : 3
Format                                   : ASS
Codec ID                                 : S_TEXT/ASS
Codec ID/Info                            : Advanced Sub Station Alpha
Duration                                 : 24 min 12 s
Bit rate                                 : 107 b/s
Frame rate                               : 0.205 FPS
Count of elements                        : 298
Compression mode                         : Lossless
Stream size                              : 19.0 KiB (0%)
Language                                 : English
Default                                  : Yes
Forced                                   : No

Menu
00:00:00.000                             : Opening
00:01:30.048                             : Part A
00:11:13.047                             : Part B
00:22:30.057                             : Ending
00:23:50.095                             : Preview

Other Files in this Torrent
Kino no Tabi The Beautiful World - 02 - A Tale of Feeding Off Others.mkv
beta
Anime DDL+NZB mirror
Current Time: 14/06/2024 08:26



About/FAQs

Discord