Kino no Tabi The Beautiful World - 01 - Land of Visible Pain.mkv


File Size393.1 MB (412,226,336 bytes)
DownloadClickNUpload | DailyUploads | DownloadGG | GoFile | KrakenFiles | MdiaLoad | MultiUp
  • BdUpload
  • DownAce
  • Fichier
  • FileCloud
  • Filerio
  • FilesCdn
  • IndiShare
  • Kbagi
  • Turbobit
  • UpToBox
  • Uppit
| Uppit
HashesCRC32: E177617A, MD5: 0A848ED6874DBD75022F4B44CDF564FB, SHA1: 9305210924C236805AB303899AE805467A4D786C, SHA256: 728BB96C910B7D49D152265F770D1DD0BFDB8180F14607A95C0C49C180F3EC09, ED2K: D3B915C2C45476276AFE4BA67C96B11E
Screenshots
screenshotscreenshotscreenshotscreenshotscreenshot
SubtitlesAll Attachments | eng [ASS]
Additional Info
General
Unique ID                                : 333229162341098857509723366710899082640 (0xFAB19A2A6832745DCC3412E226EF8590)
Complete name                            : Kino no Tabi The Beautiful World - 01 - Land of Visible Pain.mkv
Format                                   : Matroska
Format version                           : Version 4
File size                                : 393 MiB
Duration                                 : 24 min 22 s
Overall bit rate                         : 2 255 kb/s
Frame rate                               : 23.976 FPS
Encoded date                             : 2024-04-01 03:20:29 UTC
Writing application                      : mkvmerge v83.0 ('Circle Of Friends') 64-bit
Writing library                          : libebml v1.4.5 + libmatroska v1.7.1
Attachments                              : corbelb.ttf / CUSHNGH.TTF / RuzickaTypeK.ttf / segoeprb.ttf / corbel.ttf

Video
ID                                       : 1
Format                                   : AV1
Format/Info                              : AOMedia Video 1
Format profile                           : Main@L4.0
Codec ID                                 : V_AV1
Duration                                 : 24 min 22 s
Bit rate                                 : 2 144 kb/s
Width                                    : 1 920 pixels
Height                                   : 1 080 pixels
Display aspect ratio                     : 16:9
Frame rate mode                          : Constant
Frame rate                               : 23.976 (24000/1001) FPS
Color space                              : YUV
Chroma subsampling                       : 4:2:0
Bit depth                                : 10 bits
Bits/(Pixel*Frame)                       : 0.043
Stream size                              : 374 MiB (95%)
Default                                  : Yes
Forced                                   : No
Color range                              : Limited
Color primaries                          : BT.709
Transfer characteristics                 : BT.709
Matrix coefficients                      : BT.709

Audio
ID                                       : 2
Format                                   : Opus
Codec ID                                 : A_OPUS
Duration                                 : 24 min 22 s
Bit rate                                 : 104 kb/s
Channel(s)                               : 2 channels
Channel layout                           : L R
Sampling rate                            : 48.0 kHz
Frame rate                               : 50.000 FPS (960 SPF)
Compression mode                         : Lossy
Stream size                              : 18.1 MiB (5%)
Writing library                          : Lavc60.36.100 libopus
Language                                 : Japanese
Default                                  : Yes
Forced                                   : No

Text
ID                                       : 3
Format                                   : ASS
Codec ID                                 : S_TEXT/ASS
Codec ID/Info                            : Advanced Sub Station Alpha
Duration                                 : 24 min 12 s
Bit rate                                 : 136 b/s
Frame rate                               : 0.250 FPS
Count of elements                        : 363
Compression mode                         : Lossless
Stream size                              : 24.2 KiB (0%)
Language                                 : English
Default                                  : Yes
Forced                                   : No

Menu
00:00:00.000                             : Opening
00:01:30.048                             : Part A
00:11:17.051                             : Part B
00:22:30.099                             : Ending
00:23:50.095                             : Preview

Other Files in this Torrent
Kino no Tabi The Beautiful World - 01 - Land of Visible Pain.mkv
beta
Anime DDL+NZB mirror
Current Time: 14/06/2024 09:26



About/FAQs

Discord