Kino no Tabi 2017/[Breeze] Kino no Tabi (2017) 11 [1080p BluRay][AV1][dual audio].mkv


File Size329.8 MB (345,781,195 bytes)
DownloadAnonFiles | ClickNUpload | DownloadGG | KrakenFiles | MultiUp
  • BdUpload
  • DownAce
  • Fichier
  • FileCloud
  • Filerio
  • FilesCdn
  • IndiShare
  • Kbagi
  • Turbobit
  • UpToBox
  • Uppit
| ZippyShare
HashesCRC32: 60B5B082, MD5: 243D1389AB2A9AECD0FF2473DD108A08, SHA1: 008E8CAEE0FE8E9CF68AEB6A5E3DBAE776F6CA86, SHA256: 96A1D72D2B94D6A2C1B2D89EDDDF09CAA527A2CD83623AAF3682F9849C20472D, ED2K: 84ACB4C4A00EB65E80B89E13B4FEB582
Screenshots
screenshotscreenshotscreenshotscreenshotscreenshot
SubtitlesAll Attachments | eng [ASS]
Additional Info
General
Unique ID                                : 153763127112097986385354274250778570112 (0x73ADB37A4ACE4507C7B6E21B495D6D80)
Complete name                            : [Breeze] Kino no Tabi (2017) 11 [1080p BluRay][AV1][dual audio].mkv
Format                                   : Matroska
Format version                           : Version 4
File size                                : 330 MiB
Duration                                 : 23 min 41 s
Overall bit rate                         : 1 947 kb/s
Encoded date                             : UTC 2023-01-09 08:47:46
Writing application                      : mkvmerge v67.0.0 ('Under Stars') 64-bit
Writing library                          : libebml v1.4.2 + libmatroska v1.6.4
Attachments                              : AGPmode.ttf / CASPER.ttf / LazurskiC.otf / ROMANUS.ttf / segoepr.ttf

Video
ID                                       : 1
Format                                   : AV1
Format/Info                              : AOMedia Video 1
Format profile                           : Main@L4.0
Codec ID                                 : V_AV1
Duration                                 : 23 min 40 s
Bit rate                                 : 1 502 kb/s
Width                                    : 1 920 pixels
Height                                   : 1 080 pixels
Display aspect ratio                     : 16:9
Frame rate mode                          : Variable
Frame rate                               : 23.976 (24000/1001) FPS
Color space                              : YUV
Chroma subsampling                       : 4:2:0
Bit depth                                : 10 bits
Bits/(Pixel*Frame)                       : 0.030
Stream size                              : 254 MiB (77%)
Default                                  : Yes
Forced                                   : No
Color range                              : Limited

Audio #1
ID                                       : 2
Format                                   : Opus
Codec ID                                 : A_OPUS
Duration                                 : 23 min 41 s
Bit rate                                 : 180 kb/s
Channel(s)                               : 2 channels
Channel layout                           : L R
Sampling rate                            : 48.0 kHz
Frame rate                               : 50.000 FPS (960 SPF)
Compression mode                         : Lossy
Stream size                              : 30.5 MiB (9%)
Writing library                          : Lavc59.25.100 libopus
Language                                 : Japanese
Default                                  : No
Forced                                   : No

Audio #2
ID                                       : 3
Format                                   : Opus
Codec ID                                 : A_OPUS
Duration                                 : 23 min 41 s
Bit rate                                 : 259 kb/s
Channel(s)                               : 6 channels
Channel layout                           : L R C Lb Rb LFE
Sampling rate                            : 48.0 kHz
Frame rate                               : 50.000 FPS (960 SPF)
Compression mode                         : Lossy
Stream size                              : 43.9 MiB (13%)
Writing library                          : Lavc59.25.100 libopus
Language                                 : English
Default                                  : No
Forced                                   : No

Text
ID                                       : 4
Format                                   : ASS
Codec ID                                 : S_TEXT/ASS
Codec ID/Info                            : Advanced Sub Station Alpha
Duration                                 : 23 min 39 s
Bit rate                                 : 105 b/s
Count of elements                        : 332
Compression mode                         : Lossless
Stream size                              : 18.3 KiB (0%)
Language                                 : English
Default                                  : No
Forced                                   : No

Menu
00:00:00.000                             : :OP
00:00:36.036                             : :Part A
00:11:40.033                             : :Part B
00:23:35.080                             : :Next

Other Files in this Torrent
Kino no Tabi 2017/[Breeze] Kino no Tabi (2017) 11 [1080p BluRay][AV1][dual audio].mkv
beta
Anime DDL+NZB mirror
Current Time: 20/06/2024 10:05



About/FAQs

Discord