Kino no Tabi 2017/[Breeze] Kino no Tabi (2017) 02 [1080p BluRay][AV1][dual audio].mkv


File Size455.4 MB (477,536,105 bytes)
DownloadClickNUpload | DownloadGG | KrakenFiles | MultiUp
  • BdUpload
  • DownAce
  • Fichier
  • FileCloud
  • Filerio
  • FilesCdn
  • IndiShare
  • Kbagi
  • Turbobit
  • UpToBox
  • Uppit
| ZippyShare
HashesCRC32: 06D88540, MD5: 26206A5A27450C9BE7C27175D6B3F6AD, SHA1: 7C9F641AEB0C628096EDC8D22C910955AC3F3E0B, SHA256: 8E4CB1F438CE7876970B53869EDEC043FE3613AA2423F0DCDCE020096C89373B, ED2K: 132C907720A4F20E563B58185DBD4077
Screenshots
screenshotscreenshotscreenshotscreenshotscreenshot
SubtitlesAll Attachments | eng [ASS]
Additional Info
General
Unique ID                                : 38836317460473860778773242705964893993 (0x1D379A48C1D29CC0A85AB3701E9B0729)
Complete name                            : [Breeze] Kino no Tabi (2017) 02 [1080p BluRay][AV1][dual audio].mkv
Format                                   : Matroska
Format version                           : Version 4
File size                                : 455 MiB
Duration                                 : 23 min 41 s
Overall bit rate                         : 2 688 kb/s
Encoded date                             : UTC 2023-01-09 08:41:39
Writing application                      : mkvmerge v67.0.0 ('Under Stars') 64-bit
Writing library                          : libebml v1.4.2 + libmatroska v1.6.4
Attachments                              : AGPmode.ttf / CASPER.ttf / LazurskiC.otf / ROMANUS.ttf / segoepr.ttf

Video
ID                                       : 1
Format                                   : AV1
Format/Info                              : AOMedia Video 1
Format profile                           : Main@L4.0
Codec ID                                 : V_AV1
Duration                                 : 23 min 40 s
Bit rate                                 : 2 208 kb/s
Width                                    : 1 920 pixels
Height                                   : 1 080 pixels
Display aspect ratio                     : 16:9
Frame rate mode                          : Variable
Frame rate                               : 23.976 (24000/1001) FPS
Color space                              : YUV
Chroma subsampling                       : 4:2:0
Bit depth                                : 10 bits
Bits/(Pixel*Frame)                       : 0.044
Stream size                              : 374 MiB (82%)
Default                                  : Yes
Forced                                   : No
Color range                              : Limited

Audio #1
ID                                       : 2
Format                                   : Opus
Codec ID                                 : A_OPUS
Duration                                 : 23 min 41 s
Bit rate                                 : 187 kb/s
Channel(s)                               : 2 channels
Channel layout                           : L R
Sampling rate                            : 48.0 kHz
Frame rate                               : 50.000 FPS (960 SPF)
Compression mode                         : Lossy
Stream size                              : 31.7 MiB (7%)
Writing library                          : Lavc59.25.100 libopus
Language                                 : Japanese
Default                                  : No
Forced                                   : No

Audio #2
ID                                       : 3
Format                                   : Opus
Codec ID                                 : A_OPUS
Duration                                 : 23 min 41 s
Bit rate                                 : 287 kb/s
Channel(s)                               : 6 channels
Channel layout                           : L R C Lb Rb LFE
Sampling rate                            : 48.0 kHz
Frame rate                               : 50.000 FPS (960 SPF)
Compression mode                         : Lossy
Stream size                              : 48.7 MiB (11%)
Writing library                          : Lavc59.25.100 libopus
Language                                 : English
Default                                  : No
Forced                                   : No

Text
ID                                       : 4
Format                                   : ASS
Codec ID                                 : S_TEXT/ASS
Codec ID/Info                            : Advanced Sub Station Alpha
Duration                                 : 23 min 25 s
Bit rate                                 : 95 b/s
Count of elements                        : 302
Compression mode                         : Lossless
Stream size                              : 16.4 KiB (0%)
Language                                 : English
Default                                  : No
Forced                                   : No

Menu
00:00:00.000                             : :Avant
00:01:11.989                             : :OP
00:02:42.037                             : :Part A
00:10:47.063                             : :Part B
00:21:31.290                             : :ED
00:22:59.003                             : :Part C
00:23:35.039                             : :Next

Other Files in this Torrent
Kino no Tabi 2017/[Breeze] Kino no Tabi (2017) 02 [1080p BluRay][AV1][dual audio].mkv
beta
Anime DDL+NZB mirror
Current Time: 20/06/2024 09:37



About/FAQs

Discord