Kino no Tabi 2017/[Breeze] Kino no Tabi (2017) 06 [1080p BluRay][AV1][dual audio].mkv


File Size377.0 MB (395,323,726 bytes)
DownloadAnonFiles | ClickNUpload | DownloadGG | KrakenFiles | MultiUp
  • BdUpload
  • DownAce
  • Fichier
  • FileCloud
  • Filerio
  • FilesCdn
  • IndiShare
  • Kbagi
  • Turbobit
  • UpToBox
  • Uppit
| ZippyShare
HashesCRC32: 9A84C37D, MD5: D701623AC31BF9DAEABA4193D87F0822, SHA1: 9B62E4FCF77C06C775B5F5E415FD794B46BD5020, SHA256: BF91F4F71B98E9DE2BB896422AEE74704BB4B64B247EF10985327A4EF2FB7F3E, ED2K: A1C3BF995FB96B80BDDFE5C2A5FDFE43
Screenshots
screenshotscreenshotscreenshotscreenshotscreenshot
SubtitlesAll Attachments | eng [ASS]
Additional Info
General
Unique ID                                : 156915437750783137994806973848004954 (0x1E388744ADB822AF73A884FE2EA95A)
Complete name                            : [Breeze] Kino no Tabi (2017) 06 [1080p BluRay][AV1][dual audio].mkv
Format                                   : Matroska
Format version                           : Version 4
File size                                : 377 MiB
Duration                                 : 23 min 41 s
Overall bit rate                         : 2 226 kb/s
Encoded date                             : UTC 2023-01-09 08:44:24
Writing application                      : mkvmerge v67.0.0 ('Under Stars') 64-bit
Writing library                          : libebml v1.4.2 + libmatroska v1.6.4
Attachments                              : AGPmode.ttf / CASPER.ttf / LazurskiC.otf / ROMANUS.ttf / segoepr.ttf

Video
ID                                       : 1
Format                                   : AV1
Format/Info                              : AOMedia Video 1
Format profile                           : Main@L4.0
Codec ID                                 : V_AV1
Duration                                 : 23 min 40 s
Bit rate                                 : 1 758 kb/s
Width                                    : 1 920 pixels
Height                                   : 1 080 pixels
Display aspect ratio                     : 16:9
Frame rate mode                          : Variable
Frame rate                               : 23.976 FPS
Color space                              : YUV
Chroma subsampling                       : 4:2:0
Bit depth                                : 10 bits
Bits/(Pixel*Frame)                       : 0.035
Stream size                              : 298 MiB (79%)
Default                                  : Yes
Forced                                   : No
Color range                              : Limited

Audio #1
ID                                       : 2
Format                                   : Opus
Codec ID                                 : A_OPUS
Duration                                 : 23 min 41 s
Bit rate                                 : 190 kb/s
Channel(s)                               : 2 channels
Channel layout                           : L R
Sampling rate                            : 48.0 kHz
Frame rate                               : 50.000 FPS (960 SPF)
Compression mode                         : Lossy
Stream size                              : 32.2 MiB (9%)
Writing library                          : Lavc59.25.100 libopus
Language                                 : Japanese
Default                                  : No
Forced                                   : No

Audio #2
ID                                       : 3
Format                                   : Opus
Codec ID                                 : A_OPUS
Duration                                 : 23 min 41 s
Bit rate                                 : 272 kb/s
Channel(s)                               : 6 channels
Channel layout                           : L R C Lb Rb LFE
Sampling rate                            : 48.0 kHz
Frame rate                               : 50.000 FPS (960 SPF)
Compression mode                         : Lossy
Stream size                              : 46.0 MiB (12%)
Writing library                          : Lavc59.25.100 libopus
Language                                 : English
Default                                  : No
Forced                                   : No

Text
ID                                       : 4
Format                                   : ASS
Codec ID                                 : S_TEXT/ASS
Codec ID/Info                            : Advanced Sub Station Alpha
Duration                                 : 23 min 37 s
Bit rate                                 : 104 b/s
Count of elements                        : 353
Compression mode                         : Lossless
Stream size                              : 18.1 KiB (0%)
Language                                 : English
Default                                  : No
Forced                                   : No

Menu
00:00:00.000                             : :Avant
00:00:43.043                             : :OP
00:02:13.008                             : :Part A
00:13:30.018                             : :Part B
00:22:04.990                             : :ED
00:23:34.997                             : :Next

Other Files in this Torrent
Kino no Tabi 2017/[Breeze] Kino no Tabi (2017) 06 [1080p BluRay][AV1][dual audio].mkv
beta
Anime DDL+NZB mirror
Current Time: 20/06/2024 09:12



About/FAQs

Discord