Kino no Tabi 2003/[Breeze] Kino no Tabi (2003) 03 [576p DVD][AV1][dual audio].mkv


File Size300.1 MB (314,658,203 bytes)
DownloadAnonFiles | ClickNUpload | DownloadGG | KrakenFiles | MultiUp
  • BdUpload
  • DownAce
  • Fichier
  • FileCloud
  • Filerio
  • FilesCdn
  • IndiShare
  • Kbagi
  • Turbobit
  • UpToBox
  • Uppit
| ZippyShare
HashesCRC32: D6A6702B, MD5: F2C5ECE45DAB2A9DCD8FB5F1490A487D, SHA1: F49271102AEAE944434B43B57A0A3BAE42511335, SHA256: F377D9FBE0A78B6001E00CCD3F2C1013E8DFF9A058BB61CF47036A51D912B62E, ED2K: 7B98A54F8677D1C61A77C05495268742
Screenshots
screenshotscreenshotscreenshotscreenshotscreenshot
SubtitlesAll Attachments | Subs by KAA [eng, ASS]
Additional Info
General
Unique ID                                : 277363143284964104844387683794404368728 (0xD0AA32C49669CAF9788450C51555E158)
Complete name                            : [Breeze] Kino no Tabi (2003) 03 [576p DVD][AV1][dual audio].mkv
Format                                   : Matroska
Format version                           : Version 4
File size                                : 300 MiB
Duration                                 : 24 min 31 s
Overall bit rate                         : 1 711 kb/s
Encoded date                             : UTC 2023-01-09 08:04:32
Writing application                      : mkvmerge v67.0.0 ('Under Stars') 64-bit
Writing library                          : libebml v1.4.2 + libmatroska v1.6.4
Attachments                              : corbel.ttf / corbelb.ttf / CUSHNGH.ttf / RuzickaTypeK.ttf / segoeprb.ttf

Video
ID                                       : 1
Format                                   : AV1
Format/Info                              : AOMedia Video 1
Format profile                           : Main@L3.0
Codec ID                                 : V_AV1
Duration                                 : 24 min 21 s
Bit rate                                 : 1 323 kb/s
Width                                    : 1 024 pixels
Height                                   : 576 pixels
Display aspect ratio                     : 16:9
Frame rate mode                          : Variable
Frame rate                               : 23.976 FPS
Color space                              : YUV
Chroma subsampling                       : 4:2:0
Bit depth                                : 10 bits
Bits/(Pixel*Frame)                       : 0.094
Stream size                              : 231 MiB (77%)
Default                                  : Yes
Forced                                   : No
Color range                              : Limited

Audio #1
ID                                       : 2
Format                                   : Opus
Codec ID                                 : A_OPUS
Duration                                 : 24 min 31 s
Bit rate                                 : 159 kb/s
Channel(s)                               : 2 channels
Channel layout                           : L R
Sampling rate                            : 48.0 kHz
Frame rate                               : 50.001 FPS (960 SPF)
Compression mode                         : Lossy
Stream size                              : 27.8 MiB (9%)
Writing library                          : Lavc59.25.100 libopus
Language                                 : Japanese
Default                                  : No
Forced                                   : No

Audio #2
ID                                       : 3
Format                                   : Opus
Codec ID                                 : A_OPUS
Duration                                 : 24 min 21 s
Bit rate                                 : 230 kb/s
Channel(s)                               : 6 channels
Channel layout                           : L R C Lb Rb LFE
Sampling rate                            : 48.0 kHz
Frame rate                               : 50.000 FPS (960 SPF)
Compression mode                         : Lossy
Stream size                              : 40.1 MiB (13%)
Writing library                          : Lavc59.25.100 libopus
Language                                 : English
Default                                  : No
Forced                                   : No

Text
ID                                       : 4
Format                                   : ASS
Codec ID                                 : S_TEXT/ASS
Codec ID/Info                            : Advanced Sub Station Alpha
Duration                                 : 24 min 13 s
Bit rate                                 : 153 b/s
Count of elements                        : 404
Compression mode                         : Lossless
Stream size                              : 27.2 KiB (0%)
Title                                    : Subs by KAA
Language                                 : English
Default                                  : No
Forced                                   : No

Other Files in this Torrent
Kino no Tabi 2003/[Breeze] Kino no Tabi (2003) 03 [576p DVD][AV1][dual audio].mkv
beta
Anime DDL+NZB mirror
Current Time: 20/06/2024 10:03



About/FAQs

Discord