Kino no Tabi 2003/[Breeze] Kino no Tabi (2003) 12 [576p DVD][AV1][dual audio].mkv


File Size268.8 MB (281,880,153 bytes)
DownloadAnonFiles | ClickNUpload | DownloadGG | KrakenFiles | MultiUp
  • BdUpload
  • DownAce
  • Fichier
  • FileCloud
  • Filerio
  • FilesCdn
  • IndiShare
  • Kbagi
  • Turbobit
  • UpToBox
  • Uppit
| ZippyShare
HashesCRC32: 8CF1F518, MD5: 64C7931E611DA6F1D7ED6687811D4352, SHA1: 81BF2DD55E8FC39C8ADCD0FFDB17A6AFAF753861, SHA256: 582B71698A416C685C631CC01DD9E05333AF46E325DEB2D78E390959CC45B9F5, ED2K: 95DF313B3CF8FE46417AD20DFB8390A7
Screenshots
screenshotscreenshotscreenshotscreenshotscreenshot
SubtitlesAll Attachments | Subs by KAA [eng, ASS]
Additional Info
General
Unique ID                                : 332057636287037366573902436285264133915 (0xF9CFF978C0460A0066177C98782B7F1B)
Complete name                            : [Breeze] Kino no Tabi (2003) 12 [576p DVD][AV1][dual audio].mkv
Format                                   : Matroska
Format version                           : Version 4
File size                                : 269 MiB
Duration                                 : 24 min 23 s
Overall bit rate                         : 1 541 kb/s
Encoded date                             : UTC 2023-01-09 08:08:10
Writing application                      : mkvmerge v67.0.0 ('Under Stars') 64-bit
Writing library                          : libebml v1.4.2 + libmatroska v1.6.4
Attachments                              : corbel.ttf / corbelb.ttf / CUSHNGH.ttf / RuzickaTypeK.ttf / segoeprb.ttf

Video
ID                                       : 1
Format                                   : AV1
Format/Info                              : AOMedia Video 1
Format profile                           : Main@L3.0
Codec ID                                 : V_AV1
Duration                                 : 24 min 23 s
Bit rate                                 : 1 141 kb/s
Width                                    : 1 024 pixels
Height                                   : 576 pixels
Display aspect ratio                     : 16:9
Frame rate mode                          : Variable
Frame rate                               : 23.976 (24000/1001) FPS
Color space                              : YUV
Chroma subsampling                       : 4:2:0
Bit depth                                : 10 bits
Bits/(Pixel*Frame)                       : 0.081
Stream size                              : 199 MiB (74%)
Default                                  : Yes
Forced                                   : No
Color range                              : Limited

Audio #1
ID                                       : 2
Format                                   : Opus
Codec ID                                 : A_OPUS
Duration                                 : 24 min 23 s
Bit rate                                 : 156 kb/s
Channel(s)                               : 2 channels
Channel layout                           : L R
Sampling rate                            : 48.0 kHz
Frame rate                               : 50.000 FPS (960 SPF)
Compression mode                         : Lossy
Stream size                              : 27.2 MiB (10%)
Writing library                          : Lavc59.25.100 libopus
Language                                 : Japanese
Default                                  : No
Forced                                   : No

Audio #2
ID                                       : 3
Format                                   : Opus
Codec ID                                 : A_OPUS
Duration                                 : 24 min 21 s
Bit rate                                 : 235 kb/s
Channel(s)                               : 6 channels
Channel layout                           : L R C Lb Rb LFE
Sampling rate                            : 48.0 kHz
Frame rate                               : 50.000 FPS (960 SPF)
Compression mode                         : Lossy
Stream size                              : 41.0 MiB (15%)
Writing library                          : Lavc59.25.100 libopus
Language                                 : English
Default                                  : No
Forced                                   : No

Text
ID                                       : 4
Format                                   : ASS
Codec ID                                 : S_TEXT/ASS
Codec ID/Info                            : Advanced Sub Station Alpha
Duration                                 : 24 min 11 s
Bit rate                                 : 112 b/s
Count of elements                        : 314
Compression mode                         : Lossless
Stream size                              : 20.0 KiB (0%)
Title                                    : Subs by KAA
Language                                 : English
Default                                  : No
Forced                                   : No

Other Files in this Torrent
Kino no Tabi 2003/[Breeze] Kino no Tabi (2003) 12 [576p DVD][AV1][dual audio].mkv
beta
Anime DDL+NZB mirror
Current Time: 20/06/2024 08:46



About/FAQs

Discord