Kino no Tabi 2017/[Breeze] Kino no Tabi (2017) 05 [1080p BluRay][AV1][dual audio].mkv


File Size354.1 MB (371,256,404 bytes)
DownloadAnonFiles | ClickNUpload | DownloadGG | KrakenFiles | MultiUp
  • BdUpload
  • DownAce
  • Fichier
  • FileCloud
  • Filerio
  • FilesCdn
  • IndiShare
  • Kbagi
  • Turbobit
  • UpToBox
  • Uppit
| ZippyShare
HashesCRC32: CF72B41B, MD5: 94915479893997BF0B0B1D67D0E4EC72, SHA1: D778E78960E6CD52A160AE54BBD8F66C3C4A5304, SHA256: E06C134E93E1619BBC3587B37F632D56EAEF4A53DC98D9F4D5C02E937C9DA5AB, ED2K: 6B811331168A24A531B14ABB69321E41
Screenshots
screenshotscreenshotscreenshotscreenshotscreenshot
SubtitlesAll Attachments | eng [ASS]
Additional Info
General
Unique ID                                : 239046020583695487090965298834798226119 (0xB3D696C2FE80E52ACACC129DD0C72AC7)
Complete name                            : [Breeze] Kino no Tabi (2017) 05 [1080p BluRay][AV1][dual audio].mkv
Format                                   : Matroska
Format version                           : Version 4
File size                                : 354 MiB
Duration                                 : 23 min 42 s
Overall bit rate                         : 2 089 kb/s
Encoded date                             : UTC 2023-01-09 08:43:44
Writing application                      : mkvmerge v67.0.0 ('Under Stars') 64-bit
Writing library                          : libebml v1.4.2 + libmatroska v1.6.4
Attachments                              : AGPmode.ttf / CASPER.ttf / LazurskiC.otf / ROMANUS.ttf / segoepr.ttf

Video
ID                                       : 1
Format                                   : AV1
Format/Info                              : AOMedia Video 1
Format profile                           : Main@L4.0
Codec ID                                 : V_AV1
Duration                                 : 23 min 41 s
Bit rate                                 : 1 620 kb/s
Width                                    : 1 920 pixels
Height                                   : 1 080 pixels
Display aspect ratio                     : 16:9
Frame rate mode                          : Variable
Frame rate                               : 23.976 FPS
Color space                              : YUV
Chroma subsampling                       : 4:2:0
Bit depth                                : 10 bits
Bits/(Pixel*Frame)                       : 0.033
Stream size                              : 275 MiB (78%)
Default                                  : Yes
Forced                                   : No
Color range                              : Limited

Audio #1
ID                                       : 2
Format                                   : Opus
Codec ID                                 : A_OPUS
Duration                                 : 23 min 42 s
Bit rate                                 : 188 kb/s
Channel(s)                               : 2 channels
Channel layout                           : L R
Sampling rate                            : 48.0 kHz
Frame rate                               : 50.000 FPS (960 SPF)
Compression mode                         : Lossy
Stream size                              : 31.8 MiB (9%)
Writing library                          : Lavc59.25.100 libopus
Language                                 : Japanese
Default                                  : No
Forced                                   : No

Audio #2
ID                                       : 3
Format                                   : Opus
Codec ID                                 : A_OPUS
Duration                                 : 23 min 42 s
Bit rate                                 : 275 kb/s
Channel(s)                               : 6 channels
Channel layout                           : L R C Lb Rb LFE
Sampling rate                            : 48.0 kHz
Frame rate                               : 50.000 FPS (960 SPF)
Compression mode                         : Lossy
Stream size                              : 46.6 MiB (13%)
Writing library                          : Lavc59.25.100 libopus
Language                                 : English
Default                                  : No
Forced                                   : No

Text
ID                                       : 4
Format                                   : ASS
Codec ID                                 : S_TEXT/ASS
Codec ID/Info                            : Advanced Sub Station Alpha
Duration                                 : 23 min 31 s
Bit rate                                 : 121 b/s
Count of elements                        : 366
Compression mode                         : Lossless
Stream size                              : 20.8 KiB (0%)
Language                                 : English
Default                                  : No
Forced                                   : No

Menu
00:00:00.000                             : :OP
00:01:31.008                             : :Part A
00:09:23.021                             : :Part B
00:22:02.655                             : :ED
00:23:35.998                             : :Next

Other Files in this Torrent
Kino no Tabi 2017/[Breeze] Kino no Tabi (2017) 05 [1080p BluRay][AV1][dual audio].mkv
beta
Anime DDL+NZB mirror
Current Time: 21/06/2024 07:06



About/FAQs

Discord