Kino no Tabi 2003/[Breeze] Kino no Tabi (2003) 09 [576p DVD][AV1][dual audio].mkv


File Size246.7 MB (258,659,311 bytes)
DownloadAnonFiles | ClickNUpload | DownloadGG | KrakenFiles | MultiUp
  • BdUpload
  • DownAce
  • Fichier
  • FileCloud
  • Filerio
  • FilesCdn
  • IndiShare
  • Kbagi
  • Turbobit
  • UpToBox
  • Uppit
| ZippyShare
HashesCRC32: C6D4B09D, MD5: 76A7720C7570212617776F0869B7D1A2, SHA1: 9B7DA2D66DC1C2E2DA8D9D52874C11723844416B, SHA256: 5779243EC7732D46E58D72966A63AFA670B6E4CE1DF4EB9466AA10EC5256A6AD, ED2K: 2CC96696B29BC71EA1876374B992C64D
Screenshots
screenshotscreenshotscreenshotscreenshotscreenshot
SubtitlesAll Attachments | Subs by KAA [eng, ASS]
Additional Info
General
Unique ID                                : 207407859996318790819753227432711286284 (0x9C094D02FC8394EA5EB7E9B8DE81EE0C)
Complete name                            : [Breeze] Kino no Tabi (2003) 09 [576p DVD][AV1][dual audio].mkv
Format                                   : Matroska
Format version                           : Version 4
File size                                : 247 MiB
Duration                                 : 24 min 31 s
Overall bit rate                         : 1 406 kb/s
Encoded date                             : UTC 2023-01-09 08:06:57
Writing application                      : mkvmerge v67.0.0 ('Under Stars') 64-bit
Writing library                          : libebml v1.4.2 + libmatroska v1.6.4
Attachments                              : corbel.ttf / corbelb.ttf / CUSHNGH.ttf / RuzickaTypeK.ttf / segoeprb.ttf

Video
ID                                       : 1
Format                                   : AV1
Format/Info                              : AOMedia Video 1
Format profile                           : Main@L3.0
Codec ID                                 : V_AV1
Duration                                 : 24 min 21 s
Bit rate                                 : 1 021 kb/s
Width                                    : 1 024 pixels
Height                                   : 576 pixels
Display aspect ratio                     : 16:9
Frame rate mode                          : Variable
Frame rate                               : 23.976 FPS
Color space                              : YUV
Chroma subsampling                       : 4:2:0
Bit depth                                : 10 bits
Bits/(Pixel*Frame)                       : 0.072
Stream size                              : 178 MiB (72%)
Default                                  : Yes
Forced                                   : No
Color range                              : Limited

Audio #1
ID                                       : 2
Format                                   : Opus
Codec ID                                 : A_OPUS
Duration                                 : 24 min 31 s
Bit rate                                 : 155 kb/s
Channel(s)                               : 2 channels
Channel layout                           : L R
Sampling rate                            : 48.0 kHz
Frame rate                               : 50.000 FPS (960 SPF)
Compression mode                         : Lossy
Stream size                              : 27.1 MiB (11%)
Writing library                          : Lavc59.25.100 libopus
Language                                 : Japanese
Default                                  : No
Forced                                   : No

Audio #2
ID                                       : 3
Format                                   : Opus
Codec ID                                 : A_OPUS
Duration                                 : 24 min 21 s
Bit rate                                 : 231 kb/s
Channel(s)                               : 6 channels
Channel layout                           : L R C Lb Rb LFE
Sampling rate                            : 48.0 kHz
Frame rate                               : 50.000 FPS (960 SPF)
Compression mode                         : Lossy
Stream size                              : 40.2 MiB (16%)
Writing library                          : Lavc59.25.100 libopus
Language                                 : English
Default                                  : No
Forced                                   : No

Text
ID                                       : 4
Format                                   : ASS
Codec ID                                 : S_TEXT/ASS
Codec ID/Info                            : Advanced Sub Station Alpha
Duration                                 : 24 min 12 s
Bit rate                                 : 154 b/s
Count of elements                        : 453
Compression mode                         : Lossless
Stream size                              : 27.3 KiB (0%)
Title                                    : Subs by KAA
Language                                 : English
Default                                  : No
Forced                                   : No

Other Files in this Torrent
Kino no Tabi 2003/[Breeze] Kino no Tabi (2003) 09 [576p DVD][AV1][dual audio].mkv
beta
Anime DDL+NZB mirror
Current Time: 20/06/2024 08:34



About/FAQs

Discord