Kino no Tabi 2017/[Breeze] Kino no Tabi (2017) 08 [1080p BluRay][AV1][dual audio].mkv


File Size365.5 MB (383,288,158 bytes)
DownloadAnonFiles | ClickNUpload | DownloadGG | KrakenFiles | MultiUp
  • BdUpload
  • DownAce
  • Fichier
  • FileCloud
  • Filerio
  • FilesCdn
  • IndiShare
  • Kbagi
  • Turbobit
  • UpToBox
  • Uppit
| ZippyShare
HashesCRC32: AC5EC933, MD5: A60E219B21D2839AF5B3DB80903BB338, SHA1: 68FDC2667683E78F3D39A770DACFE309E6A61F09, SHA256: A691B5D761AC157B17415F4141582251BB48B93E165CBA8CADB62690F8D3C646, ED2K: 075AD42A7A9E574CEA224D97D7ACAC85
Screenshots
screenshotscreenshotscreenshotscreenshotscreenshot
SubtitlesAll Attachments | eng [ASS]
Additional Info
General
Unique ID                                : 186243902616691373913495034480934972985 (0x8C1D4559C2F5345AE5857AB58176EE39)
Complete name                            : [Breeze] Kino no Tabi (2017) 08 [1080p BluRay][AV1][dual audio].mkv
Format                                   : Matroska
Format version                           : Version 4
File size                                : 366 MiB
Duration                                 : 23 min 41 s
Overall bit rate                         : 2 158 kb/s
Encoded date                             : UTC 2023-01-09 08:45:45
Writing application                      : mkvmerge v67.0.0 ('Under Stars') 64-bit
Writing library                          : libebml v1.4.2 + libmatroska v1.6.4
Attachments                              : AGPmode.ttf / CASPER.ttf / LazurskiC.otf / ROMANUS.ttf / segoepr.ttf

Video
ID                                       : 1
Format                                   : AV1
Format/Info                              : AOMedia Video 1
Format profile                           : Main@L4.0
Codec ID                                 : V_AV1
Duration                                 : 23 min 40 s
Bit rate                                 : 1 686 kb/s
Width                                    : 1 920 pixels
Height                                   : 1 080 pixels
Display aspect ratio                     : 16:9
Frame rate mode                          : Variable
Frame rate                               : 23.976 FPS
Color space                              : YUV
Chroma subsampling                       : 4:2:0
Bit depth                                : 10 bits
Bits/(Pixel*Frame)                       : 0.034
Stream size                              : 286 MiB (78%)
Default                                  : Yes
Forced                                   : No
Color range                              : Limited

Audio #1
ID                                       : 2
Format                                   : Opus
Codec ID                                 : A_OPUS
Duration                                 : 23 min 41 s
Bit rate                                 : 188 kb/s
Channel(s)                               : 2 channels
Channel layout                           : L R
Sampling rate                            : 48.0 kHz
Frame rate                               : 50.000 FPS (960 SPF)
Compression mode                         : Lossy
Stream size                              : 31.8 MiB (9%)
Writing library                          : Lavc59.25.100 libopus
Language                                 : Japanese
Default                                  : No
Forced                                   : No

Audio #2
ID                                       : 3
Format                                   : Opus
Codec ID                                 : A_OPUS
Duration                                 : 23 min 41 s
Bit rate                                 : 278 kb/s
Channel(s)                               : 6 channels
Channel layout                           : L R C Lb Rb LFE
Sampling rate                            : 48.0 kHz
Frame rate                               : 50.000 FPS (960 SPF)
Compression mode                         : Lossy
Stream size                              : 47.1 MiB (13%)
Writing library                          : Lavc59.25.100 libopus
Language                                 : English
Default                                  : No
Forced                                   : No

Text
ID                                       : 4
Format                                   : ASS
Codec ID                                 : S_TEXT/ASS
Codec ID/Info                            : Advanced Sub Station Alpha
Duration                                 : 23 min 19 s
Bit rate                                 : 94 b/s
Count of elements                        : 281
Compression mode                         : Lossless
Stream size                              : 16.1 KiB (0%)
Language                                 : English
Default                                  : No
Forced                                   : No

Menu
00:00:00.000                             : :Avant
00:00:37.037                             : :OP
00:02:07.002                             : :Part A
00:11:51.002                             : :Part B
00:22:02.988                             : :ED
00:23:35.039                             : :Next

Other Files in this Torrent
Kino no Tabi 2017/[Breeze] Kino no Tabi (2017) 08 [1080p BluRay][AV1][dual audio].mkv
beta
Anime DDL+NZB mirror
Current Time: 20/06/2024 08:53



About/FAQs

Discord