Kino no Tabi 2003/[Breeze] Kino no Tabi (2003) 13 [576p DVD][AV1][dual audio].mkv


File Size286.6 MB (300,558,248 bytes)
DownloadAnonFiles | ClickNUpload | DownloadGG | KrakenFiles | MultiUp
  • BdUpload
  • DownAce
  • Fichier
  • FileCloud
  • Filerio
  • FilesCdn
  • IndiShare
  • Kbagi
  • Turbobit
  • UpToBox
  • Uppit
| ZippyShare
HashesCRC32: 8CE0B942, MD5: 8D261006ED255BA2B6E0221FDC914F87, SHA1: 2490106A48773B34999B422BF8851D006B8CA3D0, SHA256: C02E13445959F5E87C21F12D5DC0BF8757B52A69DDDA7B0E7D0DBC3FFE48C8A4, ED2K: 11EC9736D79B61AFB7CE73C6BB5CF0EE
Screenshots
screenshotscreenshotscreenshotscreenshotscreenshot
SubtitlesAll Attachments | Subs by KAA [eng, ASS]
Additional Info
General
Unique ID                                : 89395504736814956791564589636152278141 (0x4340F2ACA145AEDA4725BC2AE4353C7D)
Complete name                            : [Breeze] Kino no Tabi (2003) 13 [576p DVD][AV1][dual audio].mkv
Format                                   : Matroska
Format version                           : Version 4
File size                                : 287 MiB
Duration                                 : 24 min 6 s
Overall bit rate                         : 1 662 kb/s
Encoded date                             : UTC 2023-01-09 08:08:34
Writing application                      : mkvmerge v67.0.0 ('Under Stars') 64-bit
Writing library                          : libebml v1.4.2 + libmatroska v1.6.4
Attachments                              : corbel.ttf / corbelb.ttf / CUSHNGH.ttf / RuzickaTypeK.ttf / segoeprb.ttf

Video
ID                                       : 1
Format                                   : AV1
Format/Info                              : AOMedia Video 1
Format profile                           : Main@L3.0
Codec ID                                 : V_AV1
Duration                                 : 23 min 56 s
Bit rate                                 : 1 278 kb/s
Width                                    : 1 024 pixels
Height                                   : 576 pixels
Display aspect ratio                     : 16:9
Frame rate mode                          : Variable
Frame rate                               : 23.976 (24000/1001) FPS
Color space                              : YUV
Chroma subsampling                       : 4:2:0
Bit depth                                : 10 bits
Bits/(Pixel*Frame)                       : 0.090
Stream size                              : 219 MiB (76%)
Default                                  : Yes
Forced                                   : No
Color range                              : Limited

Audio #1
ID                                       : 2
Format                                   : Opus
Codec ID                                 : A_OPUS
Duration                                 : 24 min 6 s
Bit rate                                 : 155 kb/s
Channel(s)                               : 2 channels
Channel layout                           : L R
Sampling rate                            : 48.0 kHz
Frame rate                               : 50.001 FPS (960 SPF)
Compression mode                         : Lossy
Stream size                              : 26.8 MiB (9%)
Writing library                          : Lavc59.25.100 libopus
Language                                 : Japanese
Default                                  : No
Forced                                   : No

Audio #2
ID                                       : 3
Format                                   : Opus
Codec ID                                 : A_OPUS
Duration                                 : 23 min 57 s
Bit rate                                 : 230 kb/s
Channel(s)                               : 6 channels
Channel layout                           : L R C Lb Rb LFE
Sampling rate                            : 48.0 kHz
Frame rate                               : 50.000 FPS (960 SPF)
Compression mode                         : Lossy
Stream size                              : 39.5 MiB (14%)
Writing library                          : Lavc59.25.100 libopus
Language                                 : English
Default                                  : No
Forced                                   : No

Text
ID                                       : 4
Format                                   : ASS
Codec ID                                 : S_TEXT/ASS
Codec ID/Info                            : Advanced Sub Station Alpha
Duration                                 : 23 min 47 s
Bit rate                                 : 129 b/s
Count of elements                        : 389
Compression mode                         : Lossless
Stream size                              : 22.6 KiB (0%)
Title                                    : Subs by KAA
Language                                 : English
Default                                  : No
Forced                                   : No

Other Files in this Torrent
Kino no Tabi 2003/[Breeze] Kino no Tabi (2003) 13 [576p DVD][AV1][dual audio].mkv
beta
Anime DDL+NZB mirror
Current Time: 20/06/2024 08:44



About/FAQs

Discord