File Size52.64 MB (55,199,778 bytes)
DownloadAnonFiles | ClickNUpload | DropAPK | Free | MultiUp
  • BdUpload
  • DownAce
  • Fichier
  • FileCloud
  • Filerio
  • FilesCdn
  • IndiShare
  • Kbagi
  • Turbobit
  • UpToBox
  • Uppit
| Sendspace | ZippyShare
HashesCRC32: 5BF3D83D, MD5: BD3BC8CFFF8343F701C2DE969B5AD998, SHA1: E870F44AACD0BB482758A2E9D6975BDAC587394E, SHA256: E12DD2A3A8F6CA52CB8185732EA9E5B5CEC5470E7F27A3BFD88EB3ECD086E5CD, ED2K: 429A2FD442F4515A5A6885A19166CE37
Screenshots
screenshot
Additional Info
General
Unique ID                                : 249645670057325870004174155578795225527 (0xBBD001D4413DDA49B2079BE7400DF1B7)
Complete name                            : NCOP.mkv
Format                                   : Matroska
Format version                           : Version 4
File size                                : 52.6 MiB
Duration                                 : 1 min 29 s
Overall bit rate mode                    : Variable
Overall bit rate                         : 4 909 kb/s
Encoded date                             : UTC 2020-06-22 13:02:51
Writing application                      : mkvmerge v44.0.0 ('Domino') 64-bit
Writing library                          : libebml v1.3.10 + libmatroska v1.5.2

Video
ID                                       : 1
Format                                   : HEVC
Format/Info                              : High Efficiency Video Coding
Format profile                           : Main 10@L4@Main
Codec ID                                 : V_MPEGH/ISO/HEVC
Duration                                 : 1 min 29 s
Bit rate                                 : 2 985 kb/s
Width                                    : 1 920 pixels
Height                                   : 1 080 pixels
Display aspect ratio                     : 16:9
Frame rate mode                          : Constant
Frame rate                               : 23.976 (24000/1001) FPS
Color space                              : YUV
Chroma subsampling                       : 4:2:0
Bit depth                                : 10 bits
Bits/(Pixel*Frame)                       : 0.060
Stream size                              : 32.0 MiB (61%)
Default                                  : Yes
Forced                                   : No
Color range                              : Limited
Color primaries                          : BT.709
Transfer characteristics                 : BT.709
Matrix coefficients                      : BT.709

Audio
ID                                       : 2
Format                                   : FLAC
Format/Info                              : Free Lossless Audio Codec
Codec ID                                 : A_FLAC
Duration                                 : 1 min 29 s
Bit rate mode                            : Variable
Bit rate                                 : 1 921 kb/s
Channel(s)                               : 2 channels
Channel layout                           : L R
Sampling rate                            : 48.0 kHz
Frame rate                               : 10.426 FPS (4604 SPF)
Bit depth                                : 24 bits
Compression mode                         : Lossless
Stream size                              : 20.6 MiB (39%)
Writing library                          : Lavf58.38.101
Language                                 : English
Default                                  : No
Forced                                   : No

Other Files in this Torrent
Extras/NCOP.mkv
beta
Anime DDL+NZB mirror
Current Time: 18/01/2021 19:04



About/FAQs