File Size405.3 MB (425,034,320 bytes)
DownloadAnonFiles | ClickNUpload | DropAPK | Free | MultiUp
  • BdUpload
  • DownAce
  • Fichier
  • FileCloud
  • Filerio
  • FilesCdn
  • IndiShare
  • Kbagi
  • Turbobit
  • UpToBox
  • Uppit
| ZippyShare
Sendspace: Part1, Part2
HashesCRC32: 70BAD75A, MD5: 676290113AA6BFB060AB65081451E302, SHA1: 226BDF75C7F85849DCE465C78060A8A3CC03165C, SHA256: 01930853159EE1A056B173B2245AADCF92EAE7DDBA57B4A06BDA1D483E1D9BBB, ED2K: 621664F95EB5AF742AF80CE38ED155B0
Screenshots
screenshotscreenshotscreenshotscreenshotscreenshot
SubtitlesAll Attachments | eng [ASS], fre [ASS], ger [ASS], ita [ASS], spa [ASS], spa [ASS], por [ASS], rus [ASS], ara [ASS]
Additional Info
General
Unique ID                                : 112967604277162565190891251371960805099 (0x54FCC4E921B75C1DA410BA2D14A5A6EB)
Complete name                            : [Edge] Mairimashita! Iruma-kun 02.mkv
Format                                   : Matroska
Format version                           : Version 4
File size                                : 405 MiB
Duration                                 : 24 min 30 s
Overall bit rate                         : 2 313 kb/s
Movie name                               : [Edge] Mairimashita! Iruma-kun 02
Encoded date                             : UTC 2020-06-23 09:41:42
Writing application                      : mkvmerge v47.0.0 ('Black Flag') 64-bit
Writing library                          : libebml v1.3.10 + libmatroska v1.5.2 / Lavf58.20.100

Video
ID                                       : 1
Format                                   : HEVC
Format/Info                              : High Efficiency Video Coding
Format profile                           : Main 10@L4@Main
Codec ID                                 : V_MPEGH/ISO/HEVC
Duration                                 : 24 min 30 s
Bit rate                                 : 2 117 kb/s
Width                                    : 1 920 pixels
Height                                   : 1 080 pixels
Display aspect ratio                     : 16:9
Frame rate mode                          : Constant
Frame rate                               : 23.976 (24000/1001) FPS
Color space                              : YUV
Chroma subsampling                       : 4:2:0
Bit depth                                : 10 bits
Bits/(Pixel*Frame)                       : 0.043
Stream size                              : 371 MiB (92%)
Default                                  : Yes
Forced                                   : No
Color range                              : Limited
Color primaries                          : BT.709
Transfer characteristics                 : BT.709
Matrix coefficients                      : BT.709

Audio
ID                                       : 2
Format                                   : Opus
Codec ID                                 : A_OPUS
Duration                                 : 24 min 30 s
Bit rate                                 : 191 kb/s
Channel(s)                               : 2 channels
Channel layout                           : L R
Sampling rate                            : 48.0 kHz
Frame rate                               : 50.000 FPS (960 SPF)
Compression mode                         : Lossy
Stream size                              : 33.5 MiB (8%)
Writing library                          : Lavc58.54.100 libopus
Language                                 : Japanese
Default                                  : Yes
Forced                                   : No

Text #1
ID                                       : 3
Format                                   : ASS
Codec ID                                 : S_TEXT/ASS
Codec ID/Info                            : Advanced Sub Station Alpha
Duration                                 : 24 min 25 s
Bit rate                                 : 177 b/s
Count of elements                        : 428
Compression mode                         : Lossless
Stream size                              : 31.8 KiB (0%)
Language                                 : English
Default                                  : Yes
Forced                                   : No

Text #2
ID                                       : 4
Format                                   : ASS
Codec ID                                 : S_TEXT/ASS
Codec ID/Info                            : Advanced Sub Station Alpha
Duration                                 : 24 min 17 s
Bit rate                                 : 136 b/s
Count of elements                        : 356
Compression mode                         : Lossless
Stream size                              : 24.3 KiB (0%)
Language                                 : French
Default                                  : No
Forced                                   : No

Text #3
ID                                       : 5
Format                                   : ASS
Codec ID                                 : S_TEXT/ASS
Codec ID/Info                            : Advanced Sub Station Alpha
Duration                                 : 24 min 25 s
Bit rate                                 : 137 b/s
Count of elements                        : 361
Compression mode                         : Lossless
Stream size                              : 24.7 KiB (0%)
Language                                 : German
Default                                  : No
Forced                                   : No

Text #4
ID                                       : 6
Format                                   : ASS
Codec ID                                 : S_TEXT/ASS
Codec ID/Info                            : Advanced Sub Station Alpha
Duration                                 : 24 min 25 s
Bit rate                                 : 181 b/s
Count of elements                        : 426
Compression mode                         : Lossless
Stream size                              : 32.5 KiB (0%)
Language                                 : Italian
Default                                  : No
Forced                                   : No

Text #5
ID                                       : 7
Format                                   : ASS
Codec ID                                 : S_TEXT/ASS
Codec ID/Info                            : Advanced Sub Station Alpha
Duration                                 : 24 min 20 s
Bit rate                                 : 126 b/s
Count of elements                        : 372
Compression mode                         : Lossless
Stream size                              : 22.5 KiB (0%)
Language                                 : Spanish
Default                                  : No
Forced                                   : No

Text #6
ID                                       : 8
Format                                   : ASS
Codec ID                                 : S_TEXT/ASS
Codec ID/Info                            : Advanced Sub Station Alpha
Duration                                 : 24 min 20 s
Bit rate                                 : 124 b/s
Count of elements                        : 369
Compression mode                         : Lossless
Stream size                              : 22.2 KiB (0%)
Language                                 : Spanish
Default                                  : No
Forced                                   : No

Text #7
ID                                       : 9
Format                                   : ASS
Codec ID                                 : S_TEXT/ASS
Codec ID/Info                            : Advanced Sub Station Alpha
Duration                                 : 24 min 25 s
Bit rate                                 : 166 b/s
Count of elements                        : 430
Compression mode                         : Lossless
Stream size                              : 29.8 KiB (0%)
Language                                 : Portuguese
Default                                  : No
Forced                                   : No

Text #8
ID                                       : 10
Format                                   : ASS
Codec ID                                 : S_TEXT/ASS
Codec ID/Info                            : Advanced Sub Station Alpha
Duration                                 : 24 min 18 s
Bit rate                                 : 210 b/s
Count of elements                        : 426
Compression mode                         : Lossless
Stream size                              : 37.5 KiB (0%)
Language                                 : Russian
Default                                  : No
Forced                                   : No

Text #9
ID                                       : 11
Format                                   : ASS
Codec ID                                 : S_TEXT/ASS
Codec ID/Info                            : Advanced Sub Station Alpha
Duration                                 : 24 min 25 s
Bit rate                                 : 207 b/s
Count of elements                        : 434
Compression mode                         : Lossless
Stream size                              : 37.2 KiB (0%)
Language                                 : Arabic
Default                                  : No
Forced                                   : No

Other Files in this Torrent
[Edge] Mairimashita! Iruma-kun 02.mkv
beta
Anime DDL+NZB mirror
Current Time: 18/01/2021 20:14



About/FAQs