File Size371.9 MB (389,917,196 bytes)
DownloadAnonFiles | ClickNUpload | DropAPK | Free | MultiUp
  • BdUpload
  • DownAce
  • Fichier
  • FileCloud
  • Filerio
  • FilesCdn
  • IndiShare
  • Kbagi
  • Turbobit
  • UpToBox
  • Uppit
| ZippyShare
Sendspace: Part1, Part2
HashesCRC32: C9A75E6C, MD5: D9162C4BF0011B1ECCA2BA04A52F1FEC, SHA1: 4DFE6546A106AE847AADDD7F7720D20D42540720, SHA256: 9CE9F48CF5FC01592595BA9D83B373E9256339734736A0DE99DE595D22C7FB06, ED2K: E7D7D4E12C36F2F0647578541B50D76A
Screenshots
screenshotscreenshotscreenshotscreenshotscreenshot
SubtitlesAll Attachments | eng [ASS], fre [ASS], ger [ASS], ita [ASS], spa [ASS], spa [ASS], por [ASS], rus [ASS], ara [ASS]
Additional Info
General
Unique ID                                : 251908950195447553665508545505031628014 (0xBD83E627C05472B41D39F14F54EC24EE)
Complete name                            : [Edge] Mairimashita! Iruma-kun 05.mkv
Format                                   : Matroska
Format version                           : Version 4
File size                                : 372 MiB
Duration                                 : 24 min 30 s
Overall bit rate                         : 2 122 kb/s
Movie name                               : [Edge] Mairimashita! Iruma-kun 05
Encoded date                             : UTC 2020-06-23 09:41:53
Writing application                      : mkvmerge v47.0.0 ('Black Flag') 64-bit
Writing library                          : libebml v1.3.10 + libmatroska v1.5.2

Video
ID                                       : 1
Format                                   : HEVC
Format/Info                              : High Efficiency Video Coding
Format profile                           : Main 10@L4@Main
Codec ID                                 : V_MPEGH/ISO/HEVC
Duration                                 : 24 min 30 s
Bit rate                                 : 1 932 kb/s
Width                                    : 1 920 pixels
Height                                   : 1 080 pixels
Display aspect ratio                     : 16:9
Frame rate mode                          : Constant
Frame rate                               : 23.976 (24000/1001) FPS
Color space                              : YUV
Chroma subsampling                       : 4:2:0
Bit depth                                : 10 bits
Bits/(Pixel*Frame)                       : 0.039
Stream size                              : 339 MiB (91%)
Default                                  : Yes
Forced                                   : No
Color range                              : Limited
Color primaries                          : BT.709
Transfer characteristics                 : BT.709
Matrix coefficients                      : BT.709

Audio
ID                                       : 2
Format                                   : Opus
Codec ID                                 : A_OPUS
Duration                                 : 24 min 30 s
Bit rate                                 : 185 kb/s
Channel(s)                               : 2 channels
Channel layout                           : L R
Sampling rate                            : 48.0 kHz
Frame rate                               : 50.000 FPS (960 SPF)
Compression mode                         : Lossy
Stream size                              : 32.5 MiB (9%)
Writing library                          : Lavc58.54.100 libopus
Language                                 : Japanese
Default                                  : Yes
Forced                                   : No

Text #1
ID                                       : 3
Format                                   : ASS
Codec ID                                 : S_TEXT/ASS
Codec ID/Info                            : Advanced Sub Station Alpha
Duration                                 : 24 min 27 s
Bit rate                                 : 185 b/s
Count of elements                        : 440
Compression mode                         : Lossless
Stream size                              : 33.1 KiB (0%)
Language                                 : English
Default                                  : Yes
Forced                                   : No

Text #2
ID                                       : 4
Format                                   : ASS
Codec ID                                 : S_TEXT/ASS
Codec ID/Info                            : Advanced Sub Station Alpha
Duration                                 : 24 min 27 s
Bit rate                                 : 141 b/s
Count of elements                        : 367
Compression mode                         : Lossless
Stream size                              : 25.4 KiB (0%)
Language                                 : French
Default                                  : No
Forced                                   : No

Text #3
ID                                       : 5
Format                                   : ASS
Codec ID                                 : S_TEXT/ASS
Codec ID/Info                            : Advanced Sub Station Alpha
Duration                                 : 24 min 27 s
Bit rate                                 : 135 b/s
Count of elements                        : 359
Compression mode                         : Lossless
Stream size                              : 24.3 KiB (0%)
Language                                 : German
Default                                  : No
Forced                                   : No

Text #4
ID                                       : 6
Format                                   : ASS
Codec ID                                 : S_TEXT/ASS
Codec ID/Info                            : Advanced Sub Station Alpha
Duration                                 : 24 min 27 s
Bit rate                                 : 181 b/s
Count of elements                        : 421
Compression mode                         : Lossless
Stream size                              : 32.5 KiB (0%)
Language                                 : Italian
Default                                  : No
Forced                                   : No

Text #5
ID                                       : 7
Format                                   : ASS
Codec ID                                 : S_TEXT/ASS
Codec ID/Info                            : Advanced Sub Station Alpha
Duration                                 : 24 min 22 s
Bit rate                                 : 121 b/s
Count of elements                        : 358
Compression mode                         : Lossless
Stream size                              : 21.7 KiB (0%)
Language                                 : Spanish
Default                                  : No
Forced                                   : No

Text #6
ID                                       : 8
Format                                   : ASS
Codec ID                                 : S_TEXT/ASS
Codec ID/Info                            : Advanced Sub Station Alpha
Duration                                 : 24 min 22 s
Bit rate                                 : 120 b/s
Count of elements                        : 358
Compression mode                         : Lossless
Stream size                              : 21.5 KiB (0%)
Language                                 : Spanish
Default                                  : No
Forced                                   : No

Text #7
ID                                       : 9
Format                                   : ASS
Codec ID                                 : S_TEXT/ASS
Codec ID/Info                            : Advanced Sub Station Alpha
Duration                                 : 24 min 27 s
Bit rate                                 : 175 b/s
Count of elements                        : 436
Compression mode                         : Lossless
Stream size                              : 31.3 KiB (0%)
Language                                 : Portuguese
Default                                  : No
Forced                                   : No

Text #8
ID                                       : 10
Format                                   : ASS
Codec ID                                 : S_TEXT/ASS
Codec ID/Info                            : Advanced Sub Station Alpha
Duration                                 : 24 min 27 s
Bit rate                                 : 217 b/s
Count of elements                        : 430
Compression mode                         : Lossless
Stream size                              : 38.9 KiB (0%)
Language                                 : Russian
Default                                  : No
Forced                                   : No

Text #9
ID                                       : 11
Format                                   : ASS
Codec ID                                 : S_TEXT/ASS
Codec ID/Info                            : Advanced Sub Station Alpha
Duration                                 : 24 min 27 s
Bit rate                                 : 216 b/s
Count of elements                        : 442
Compression mode                         : Lossless
Stream size                              : 38.7 KiB (0%)
Language                                 : Arabic
Default                                  : No
Forced                                   : No

Other Files in this Torrent
[Edge] Mairimashita! Iruma-kun 05.mkv
beta
Anime DDL+NZB mirror
Current Time: 18/01/2021 19:42



About/FAQs