File Size425.4 MB (446,036,676 bytes)
DownloadAnonFiles | ClickNUpload | DropAPK | Free | MultiUp
  • BdUpload
  • DownAce
  • Fichier
  • FileCloud
  • Filerio
  • FilesCdn
  • IndiShare
  • Kbagi
  • Turbobit
  • UpToBox
  • Uppit
| ZippyShare
Sendspace: Part1, Part2
HashesCRC32: 7E699B36, MD5: 0C296F982F39CE1042844A8DFEB496D4, SHA1: 7F0DF1A39DDCFC4932E7492A22B11B4C3A4F77BC, SHA256: 80EB7D8F1D434C6FD36E69BC32C92D54A33CAFF0B7FD872C523E96D8A7FF37B0, ED2K: E527A56CB2F9B611DE3CA4E39925E0BE
Screenshots
screenshotscreenshotscreenshotscreenshotscreenshot
SubtitlesAll Attachments | eng [ASS], fre [ASS], ger [ASS], ita [ASS], spa [ASS], spa [ASS], por [ASS], rus [ASS], ara [ASS]
Additional Info
General
Unique ID                                : 22902237738173611307525493345574165883 (0x113ACF7FE64983CD29F8A4C1D4939D7B)
Complete name                            : [Edge] Mairimashita! Iruma-kun 011.mkv
Format                                   : Matroska
Format version                           : Version 4
File size                                : 425 MiB
Duration                                 : 24 min 32 s
Overall bit rate                         : 2 423 kb/s
Movie name                               : [Edge] Mairimashita! Iruma-kun 011
Encoded date                             : UTC 2020-06-23 09:42:24
Writing application                      : mkvmerge v47.0.0 ('Black Flag') 64-bit
Writing library                          : libebml v1.3.10 + libmatroska v1.5.2 / Lavf58.35.101

Video
ID                                       : 1
Format                                   : HEVC
Format/Info                              : High Efficiency Video Coding
Format profile                           : Main 10@L4@Main
Codec ID                                 : V_MPEGH/ISO/HEVC
Duration                                 : 24 min 30 s
Bit rate                                 : 2 235 kb/s
Width                                    : 1 920 pixels
Height                                   : 1 080 pixels
Display aspect ratio                     : 16:9
Frame rate mode                          : Constant
Frame rate                               : 23.976 (24000/1001) FPS
Color space                              : YUV
Chroma subsampling                       : 4:2:0
Bit depth                                : 10 bits
Bits/(Pixel*Frame)                       : 0.045
Stream size                              : 392 MiB (92%)
Default                                  : Yes
Forced                                   : No
Color range                              : Limited
Color primaries                          : BT.709
Transfer characteristics                 : BT.709
Matrix coefficients                      : BT.709

Audio
ID                                       : 2
Format                                   : Opus
Codec ID                                 : A_OPUS
Duration                                 : 24 min 30 s
Bit rate                                 : 187 kb/s
Channel(s)                               : 2 channels
Channel layout                           : L R
Sampling rate                            : 48.0 kHz
Frame rate                               : 50.000 FPS (960 SPF)
Compression mode                         : Lossy
Stream size                              : 32.8 MiB (8%)
Writing library                          : Lavc58.54.100 libopus
Language                                 : Japanese
Default                                  : Yes
Forced                                   : No

Text #1
ID                                       : 3
Format                                   : ASS
Codec ID                                 : S_TEXT/ASS
Codec ID/Info                            : Advanced Sub Station Alpha
Duration                                 : 24 min 21 s
Bit rate                                 : 194 b/s
Count of elements                        : 465
Compression mode                         : Lossless
Stream size                              : 34.7 KiB (0%)
Language                                 : English
Default                                  : Yes
Forced                                   : No

Text #2
ID                                       : 4
Format                                   : ASS
Codec ID                                 : S_TEXT/ASS
Codec ID/Info                            : Advanced Sub Station Alpha
Duration                                 : 24 min 23 s
Bit rate                                 : 156 b/s
Count of elements                        : 410
Compression mode                         : Lossless
Stream size                              : 27.9 KiB (0%)
Language                                 : French
Default                                  : No
Forced                                   : No

Text #3
ID                                       : 5
Format                                   : ASS
Codec ID                                 : S_TEXT/ASS
Codec ID/Info                            : Advanced Sub Station Alpha
Duration                                 : 24 min 21 s
Bit rate                                 : 164 b/s
Count of elements                        : 444
Compression mode                         : Lossless
Stream size                              : 29.3 KiB (0%)
Language                                 : German
Default                                  : No
Forced                                   : No

Text #4
ID                                       : 6
Format                                   : ASS
Codec ID                                 : S_TEXT/ASS
Codec ID/Info                            : Advanced Sub Station Alpha
Duration                                 : 24 min 21 s
Bit rate                                 : 194 b/s
Count of elements                        : 459
Compression mode                         : Lossless
Stream size                              : 34.7 KiB (0%)
Language                                 : Italian
Default                                  : No
Forced                                   : No

Text #5
ID                                       : 7
Format                                   : ASS
Codec ID                                 : S_TEXT/ASS
Codec ID/Info                            : Advanced Sub Station Alpha
Duration                                 : 24 min 22 s
Bit rate                                 : 126 b/s
Count of elements                        : 384
Compression mode                         : Lossless
Stream size                              : 22.6 KiB (0%)
Language                                 : Spanish
Default                                  : No
Forced                                   : No

Text #6
ID                                       : 8
Format                                   : ASS
Codec ID                                 : S_TEXT/ASS
Codec ID/Info                            : Advanced Sub Station Alpha
Duration                                 : 24 min 22 s
Bit rate                                 : 125 b/s
Count of elements                        : 385
Compression mode                         : Lossless
Stream size                              : 22.3 KiB (0%)
Language                                 : Spanish
Default                                  : No
Forced                                   : No

Text #7
ID                                       : 9
Format                                   : ASS
Codec ID                                 : S_TEXT/ASS
Codec ID/Info                            : Advanced Sub Station Alpha
Duration                                 : 24 min 21 s
Bit rate                                 : 182 b/s
Count of elements                        : 460
Compression mode                         : Lossless
Stream size                              : 32.5 KiB (0%)
Language                                 : Portuguese
Default                                  : No
Forced                                   : No

Text #8
ID                                       : 10
Format                                   : ASS
Codec ID                                 : S_TEXT/ASS
Codec ID/Info                            : Advanced Sub Station Alpha
Duration                                 : 24 min 21 s
Bit rate                                 : 231 b/s
Count of elements                        : 455
Compression mode                         : Lossless
Stream size                              : 41.3 KiB (0%)
Language                                 : Russian
Default                                  : No
Forced                                   : No

Text #9
ID                                       : 11
Format                                   : ASS
Codec ID                                 : S_TEXT/ASS
Codec ID/Info                            : Advanced Sub Station Alpha
Duration                                 : 24 min 21 s
Bit rate                                 : 224 b/s
Count of elements                        : 465
Compression mode                         : Lossless
Stream size                              : 40.1 KiB (0%)
Language                                 : Arabic
Default                                  : No
Forced                                   : No

Other Files in this Torrent
[Edge] Mairimashita! Iruma-kun 011.mkv
beta
Anime DDL+NZB mirror
Current Time: 21/01/2021 23:19



About/FAQs