File Size416.4 MB (436,624,014 bytes)
DownloadAnonFiles | ClickNUpload | DropAPK | Free | MultiUp
  • BdUpload
  • DownAce
  • Fichier
  • FileCloud
  • Filerio
  • FilesCdn
  • IndiShare
  • Kbagi
  • Turbobit
  • UpToBox
  • Uppit
| ZippyShare
Sendspace: Part1, Part2
HashesCRC32: 6E62FB00, MD5: 583E5929CB4671064AFC8500802D3DAF, SHA1: 29F2B674D8072CDB9A2A8ABA1944653E3870AFB1, SHA256: ED63ED589CFAB2C419A7F703E9709B354E8D95A3F99FD380D6F6829FA219C85F, ED2K: 9D3913AFC4F0E1E49CB2F122204A9BD8
Screenshots
screenshotscreenshotscreenshotscreenshotscreenshot
SubtitlesAll Attachments | eng [ASS], fre [ASS], ger [ASS], ita [ASS], spa [ASS], spa [ASS], por [ASS], rus [ASS], ara [ASS]
Additional Info
General
Unique ID                                : 65527458630178202906573433438310542942 (0x314C21254F31FC52A0B47975FCFCAE5E)
Complete name                            : [Edge] Mairimashita! Iruma-kun 015.mkv
Format                                   : Matroska
Format version                           : Version 4
File size                                : 416 MiB
Duration                                 : 24 min 32 s
Overall bit rate                         : 2 373 kb/s
Movie name                               : [Edge] Mairimashita! Iruma-kun 015
Encoded date                             : UTC 2020-06-23 09:42:43
Writing application                      : mkvmerge v47.0.0 ('Black Flag') 64-bit
Writing library                          : libebml v1.3.10 + libmatroska v1.5.2

Video
ID                                       : 1
Format                                   : HEVC
Format/Info                              : High Efficiency Video Coding
Format profile                           : Main 10@L4@Main
Codec ID                                 : V_MPEGH/ISO/HEVC
Duration                                 : 24 min 30 s
Bit rate                                 : 2 125 kb/s
Width                                    : 1 920 pixels
Height                                   : 1 080 pixels
Display aspect ratio                     : 16:9
Frame rate mode                          : Constant
Frame rate                               : 23.976 (24000/1001) FPS
Color space                              : YUV
Chroma subsampling                       : 4:2:0
Bit depth                                : 10 bits
Bits/(Pixel*Frame)                       : 0.043
Stream size                              : 372 MiB (89%)
Default                                  : Yes
Forced                                   : No
Color range                              : Limited
Color primaries                          : BT.709
Transfer characteristics                 : BT.709
Matrix coefficients                      : BT.709

Audio
ID                                       : 2
Format                                   : Opus
Codec ID                                 : A_OPUS
Duration                                 : 24 min 30 s
Bit rate                                 : 246 kb/s
Channel(s)                               : 2 channels
Channel layout                           : L R
Sampling rate                            : 48.0 kHz
Frame rate                               : 50.000 FPS (960 SPF)
Compression mode                         : Lossy
Stream size                              : 43.1 MiB (10%)
Writing library                          : Lavc58.71.100 libopus
Language                                 : Japanese
Default                                  : Yes
Forced                                   : No

Text #1
ID                                       : 3
Format                                   : ASS
Codec ID                                 : S_TEXT/ASS
Codec ID/Info                            : Advanced Sub Station Alpha
Duration                                 : 24 min 28 s
Bit rate                                 : 171 b/s
Count of elements                        : 399
Compression mode                         : Lossless
Stream size                              : 30.8 KiB (0%)
Language                                 : English
Default                                  : Yes
Forced                                   : No

Text #2
ID                                       : 4
Format                                   : ASS
Codec ID                                 : S_TEXT/ASS
Codec ID/Info                            : Advanced Sub Station Alpha
Duration                                 : 24 min 27 s
Bit rate                                 : 139 b/s
Count of elements                        : 356
Compression mode                         : Lossless
Stream size                              : 25.0 KiB (0%)
Language                                 : French
Default                                  : No
Forced                                   : No

Text #3
ID                                       : 5
Format                                   : ASS
Codec ID                                 : S_TEXT/ASS
Codec ID/Info                            : Advanced Sub Station Alpha
Duration                                 : 24 min 29 s
Bit rate                                 : 161 b/s
Count of elements                        : 371
Compression mode                         : Lossless
Stream size                              : 29.0 KiB (0%)
Language                                 : German
Default                                  : No
Forced                                   : No

Text #4
ID                                       : 6
Format                                   : ASS
Codec ID                                 : S_TEXT/ASS
Codec ID/Info                            : Advanced Sub Station Alpha
Duration                                 : 24 min 27 s
Bit rate                                 : 170 b/s
Count of elements                        : 392
Compression mode                         : Lossless
Stream size                              : 30.6 KiB (0%)
Language                                 : Italian
Default                                  : No
Forced                                   : No

Text #5
ID                                       : 7
Format                                   : ASS
Codec ID                                 : S_TEXT/ASS
Codec ID/Info                            : Advanced Sub Station Alpha
Duration                                 : 24 min 21 s
Bit rate                                 : 110 b/s
Count of elements                        : 332
Compression mode                         : Lossless
Stream size                              : 19.8 KiB (0%)
Language                                 : Spanish
Default                                  : No
Forced                                   : No

Text #6
ID                                       : 8
Format                                   : ASS
Codec ID                                 : S_TEXT/ASS
Codec ID/Info                            : Advanced Sub Station Alpha
Duration                                 : 24 min 21 s
Bit rate                                 : 108 b/s
Count of elements                        : 332
Compression mode                         : Lossless
Stream size                              : 19.4 KiB (0%)
Language                                 : Spanish
Default                                  : No
Forced                                   : No

Text #7
ID                                       : 9
Format                                   : ASS
Codec ID                                 : S_TEXT/ASS
Codec ID/Info                            : Advanced Sub Station Alpha
Duration                                 : 24 min 28 s
Bit rate                                 : 160 b/s
Count of elements                        : 392
Compression mode                         : Lossless
Stream size                              : 28.8 KiB (0%)
Language                                 : Portuguese
Default                                  : No
Forced                                   : No

Text #8
ID                                       : 10
Format                                   : ASS
Codec ID                                 : S_TEXT/ASS
Codec ID/Info                            : Advanced Sub Station Alpha
Duration                                 : 24 min 28 s
Bit rate                                 : 196 b/s
Count of elements                        : 392
Compression mode                         : Lossless
Stream size                              : 35.3 KiB (0%)
Language                                 : Russian
Default                                  : No
Forced                                   : No

Text #9
ID                                       : 11
Format                                   : ASS
Codec ID                                 : S_TEXT/ASS
Codec ID/Info                            : Advanced Sub Station Alpha
Duration                                 : 24 min 30 s
Bit rate                                 : 200 b/s
Count of elements                        : 395
Compression mode                         : Lossless
Stream size                              : 35.9 KiB (0%)
Language                                 : Arabic
Default                                  : No
Forced                                   : No

Other Files in this Torrent
[Edge] Mairimashita! Iruma-kun 015.mkv
beta
Anime DDL+NZB mirror
Current Time: 18/01/2021 19:31



About/FAQs