File Size54.71 MB (57,365,495 bytes)
DownloadAnonFiles | ClickNUpload | DropAPK | Free | MultiUp
  • BdUpload
  • DownAce
  • Fichier
  • FileCloud
  • Filerio
  • FilesCdn
  • IndiShare
  • Kbagi
  • Turbobit
  • UpToBox
  • Uppit
| Sendspace | ZippyShare
HashesCRC32: 6D3D9E8F, MD5: 615E43CBC471827201996F6EE208AFBE, SHA1: 8D65D9A4F1B3EC85730453CCBD69D0A0BC26D93B, SHA256: 7928C007DE4715E3C8B60C886AC9B92C783CF1EC72A2B692EEA084BFD0B093A1, ED2K: E929569CD653D03A4C43CA3129239446
Screenshots
screenshotscreenshot
Additional Info
General
Unique ID                                : 206398414094949784429287438355695306176 (0x9B46E37C774A061A37EE95352F9E85C0)
Complete name                            : NCED.mkv
Format                                   : Matroska
Format version                           : Version 4
File size                                : 54.7 MiB
Duration                                 : 1 min 30 s
Overall bit rate mode                    : Variable
Overall bit rate                         : 5 099 kb/s
Encoded date                             : UTC 2020-06-22 13:06:22
Writing application                      : mkvmerge v44.0.0 ('Domino') 64-bit
Writing library                          : libebml v1.3.10 + libmatroska v1.5.2

Video
ID                                       : 1
Format                                   : HEVC
Format/Info                              : High Efficiency Video Coding
Format profile                           : Main 10@L4@Main
Codec ID                                 : V_MPEGH/ISO/HEVC
Duration                                 : 1 min 30 s
Bit rate                                 : 3 227 kb/s
Width                                    : 1 920 pixels
Height                                   : 1 080 pixels
Display aspect ratio                     : 16:9
Frame rate mode                          : Constant
Frame rate                               : 23.976 (24000/1001) FPS
Color space                              : YUV
Chroma subsampling                       : 4:2:0
Bit depth                                : 10 bits
Bits/(Pixel*Frame)                       : 0.065
Stream size                              : 34.6 MiB (63%)
Default                                  : Yes
Forced                                   : No
Color range                              : Limited
Color primaries                          : BT.709
Transfer characteristics                 : BT.709
Matrix coefficients                      : BT.709

Audio
ID                                       : 2
Format                                   : FLAC
Format/Info                              : Free Lossless Audio Codec
Codec ID                                 : A_FLAC
Duration                                 : 1 min 30 s
Bit rate mode                            : Variable
Bit rate                                 : 1 869 kb/s
Channel(s)                               : 2 channels
Channel layout                           : L R
Sampling rate                            : 48.0 kHz
Frame rate                               : 10.421 FPS (4606 SPF)
Bit depth                                : 24 bits
Compression mode                         : Lossless
Stream size                              : 20.1 MiB (37%)
Writing library                          : Lavf58.38.101
Language                                 : English
Default                                  : No
Forced                                   : No

Other Files in this Torrent
Extras/NCED.mkv
beta
Anime DDL+NZB mirror
Current Time: 18/01/2021 20:52



About/FAQs