File Size413.1 MB (433,212,899 bytes)
DownloadAnonFiles | ClickNUpload | DropAPK | Free | MultiUp
  • BdUpload
  • DownAce
  • Fichier
  • FileCloud
  • Filerio
  • FilesCdn
  • IndiShare
  • Kbagi
  • Turbobit
  • UpToBox
  • Uppit
| ZippyShare
Sendspace: Part1, Part2
HashesCRC32: 89F4DEB6, MD5: 5A3ACD75D64189D69DDCE32EC6D9C34F, SHA1: 1D7F588D0162908A3462669251E2A1865CBC5D02, SHA256: 590048C3932B678CB0AD1E83B0EB607A600AB7C9F69AD06D9FC7C60FD059D7B1, ED2K: 976D8992A0E7C5756E8C3F0F84A1260F
Screenshots
screenshotscreenshotscreenshotscreenshotscreenshot
SubtitlesAll Attachments | eng [ASS], fre [ASS], ger [ASS], ita [ASS], spa [ASS], spa [ASS], por [ASS], rus [ASS], ara [ASS]
Additional Info
General
Unique ID                                : 157160818255637014338647110894525104512 (0x763C1295ABB0E13F3ED10B787A3C4180)
Complete name                            : [Edge] Mairimashita! Iruma-kun 022.mkv
Format                                   : Matroska
Format version                           : Version 4
File size                                : 413 MiB
Duration                                 : 24 min 31 s
Overall bit rate                         : 2 355 kb/s
Movie name                               : [Edge] Mairimashita! Iruma-kun 022
Encoded date                             : UTC 2020-06-23 09:43:23
Writing application                      : mkvmerge v47.0.0 ('Black Flag') 64-bit
Writing library                          : libebml v1.3.10 + libmatroska v1.5.2 / Lavf58.39.101

Video
ID                                       : 1
Format                                   : HEVC
Format/Info                              : High Efficiency Video Coding
Format profile                           : Main 10@L4@Main
Codec ID                                 : V_MPEGH/ISO/HEVC
Duration                                 : 24 min 30 s
Bit rate                                 : 2 166 kb/s
Width                                    : 1 920 pixels
Height                                   : 1 080 pixels
Display aspect ratio                     : 16:9
Frame rate mode                          : Constant
Frame rate                               : 23.976 (24000/1001) FPS
Color space                              : YUV
Chroma subsampling                       : 4:2:0
Bit depth                                : 10 bits
Bits/(Pixel*Frame)                       : 0.044
Stream size                              : 380 MiB (92%)
Default                                  : Yes
Forced                                   : No
Color range                              : Limited
Color primaries                          : BT.709
Transfer characteristics                 : BT.709
Matrix coefficients                      : BT.709

Audio
ID                                       : 2
Format                                   : Opus
Codec ID                                 : A_OPUS
Duration                                 : 24 min 30 s
Bit rate                                 : 187 kb/s
Channel(s)                               : 2 channels
Channel layout                           : L R
Sampling rate                            : 48.0 kHz
Frame rate                               : 50.000 FPS (960 SPF)
Compression mode                         : Lossy
Stream size                              : 32.7 MiB (8%)
Writing library                          : Lavc58.54.100 libopus
Language                                 : Japanese
Default                                  : Yes
Forced                                   : No

Text #1
ID                                       : 3
Format                                   : ASS
Codec ID                                 : S_TEXT/ASS
Codec ID/Info                            : Advanced Sub Station Alpha
Duration                                 : 24 min 29 s
Bit rate                                 : 175 b/s
Count of elements                        : 428
Compression mode                         : Lossless
Stream size                              : 31.5 KiB (0%)
Language                                 : English
Default                                  : Yes
Forced                                   : No

Text #2
ID                                       : 4
Format                                   : ASS
Codec ID                                 : S_TEXT/ASS
Codec ID/Info                            : Advanced Sub Station Alpha
Duration                                 : 24 min 28 s
Bit rate                                 : 151 b/s
Count of elements                        : 408
Compression mode                         : Lossless
Stream size                              : 27.2 KiB (0%)
Language                                 : French
Default                                  : No
Forced                                   : No

Text #3
ID                                       : 5
Format                                   : ASS
Codec ID                                 : S_TEXT/ASS
Codec ID/Info                            : Advanced Sub Station Alpha
Duration                                 : 24 min 28 s
Bit rate                                 : 140 b/s
Count of elements                        : 395
Compression mode                         : Lossless
Stream size                              : 25.2 KiB (0%)
Language                                 : German
Default                                  : No
Forced                                   : No

Text #4
ID                                       : 6
Format                                   : ASS
Codec ID                                 : S_TEXT/ASS
Codec ID/Info                            : Advanced Sub Station Alpha
Duration                                 : 24 min 29 s
Bit rate                                 : 180 b/s
Count of elements                        : 431
Compression mode                         : Lossless
Stream size                              : 32.4 KiB (0%)
Language                                 : Italian
Default                                  : No
Forced                                   : No

Text #5
ID                                       : 7
Format                                   : ASS
Codec ID                                 : S_TEXT/ASS
Codec ID/Info                            : Advanced Sub Station Alpha
Duration                                 : 24 min 23 s
Bit rate                                 : 114 b/s
Count of elements                        : 352
Compression mode                         : Lossless
Stream size                              : 20.4 KiB (0%)
Language                                 : Spanish
Default                                  : No
Forced                                   : No

Text #6
ID                                       : 8
Format                                   : ASS
Codec ID                                 : S_TEXT/ASS
Codec ID/Info                            : Advanced Sub Station Alpha
Duration                                 : 24 min 23 s
Bit rate                                 : 112 b/s
Count of elements                        : 352
Compression mode                         : Lossless
Stream size                              : 20.1 KiB (0%)
Language                                 : Spanish
Default                                  : No
Forced                                   : No

Text #7
ID                                       : 9
Format                                   : ASS
Codec ID                                 : S_TEXT/ASS
Codec ID/Info                            : Advanced Sub Station Alpha
Duration                                 : 24 min 29 s
Bit rate                                 : 167 b/s
Count of elements                        : 422
Compression mode                         : Lossless
Stream size                              : 30.1 KiB (0%)
Language                                 : Portuguese
Default                                  : No
Forced                                   : No

Text #8
ID                                       : 10
Format                                   : ASS
Codec ID                                 : S_TEXT/ASS
Codec ID/Info                            : Advanced Sub Station Alpha
Duration                                 : 24 min 29 s
Bit rate                                 : 203 b/s
Count of elements                        : 419
Compression mode                         : Lossless
Stream size                              : 36.5 KiB (0%)
Language                                 : Russian
Default                                  : No
Forced                                   : No

Text #9
ID                                       : 11
Format                                   : ASS
Codec ID                                 : S_TEXT/ASS
Codec ID/Info                            : Advanced Sub Station Alpha
Duration                                 : 24 min 29 s
Bit rate                                 : 205 b/s
Count of elements                        : 428
Compression mode                         : Lossless
Stream size                              : 36.9 KiB (0%)
Language                                 : Arabic
Default                                  : No
Forced                                   : No

Other Files in this Torrent
[Edge] Mairimashita! Iruma-kun 022.mkv
beta
Anime DDL+NZB mirror
Current Time: 21/01/2021 22:55



About/FAQs