File Size310.9 MB (326,004,473 bytes)
DownloadAnonFiles | ClickNUpload | DropAPK | Free | MultiUp
  • BdUpload
  • DownAce
  • Fichier
  • FileCloud
  • Filerio
  • FilesCdn
  • IndiShare
  • Kbagi
  • Turbobit
  • UpToBox
  • Uppit
| ZippyShare
Sendspace: Part1, Part2
HashesCRC32: 7A41570F, MD5: A824AAD11FA412D0C656053EE3DC5673, SHA1: 09A35EE3D4AD28BDF398B8FCFE48C00CF117969B, SHA256: ADB3D2C2D746B79F405C8A4BC79008689091B15A6ADB5C2D0EBC4176154D65C7, ED2K: 5B9D4FC26A9CF5C9960958C939F347DA
Screenshots
screenshotscreenshotscreenshotscreenshotscreenshot
SubtitlesAll Attachments | eng [ASS], fre [ASS], ger [ASS], ita [ASS], spa [ASS], spa [ASS], por [ASS], rus [ASS], ara [ASS]
Additional Info
General
Unique ID                                : 255265375873099057389425587748281769609 (0xC00A52B7B9B0EE0F63070DDF74ABDE89)
Complete name                            : [Edge] Mairimashita! Iruma-kun 07.mkv
Format                                   : Matroska
Format version                           : Version 4
File size                                : 311 MiB
Duration                                 : 24 min 30 s
Overall bit rate                         : 1 774 kb/s
Movie name                               : [Edge] Mairimashita! Iruma-kun 07
Encoded date                             : UTC 2020-06-23 09:42:04
Writing application                      : mkvmerge v47.0.0 ('Black Flag') 64-bit
Writing library                          : libebml v1.3.10 + libmatroska v1.5.2

Video
ID                                       : 1
Format                                   : HEVC
Format/Info                              : High Efficiency Video Coding
Format profile                           : Main 10@L4@Main
Codec ID                                 : V_MPEGH/ISO/HEVC
Duration                                 : 24 min 30 s
Bit rate                                 : 1 580 kb/s
Width                                    : 1 920 pixels
Height                                   : 1 080 pixels
Display aspect ratio                     : 16:9
Frame rate mode                          : Constant
Frame rate                               : 23.976 (24000/1001) FPS
Color space                              : YUV
Chroma subsampling                       : 4:2:0
Bit depth                                : 10 bits
Bits/(Pixel*Frame)                       : 0.032
Stream size                              : 277 MiB (89%)
Default                                  : Yes
Forced                                   : No
Color range                              : Limited
Color primaries                          : BT.709
Transfer characteristics                 : BT.709
Matrix coefficients                      : BT.709

Audio
ID                                       : 2
Format                                   : Opus
Codec ID                                 : A_OPUS
Duration                                 : 24 min 30 s
Bit rate                                 : 190 kb/s
Channel(s)                               : 2 channels
Channel layout                           : L R
Sampling rate                            : 48.0 kHz
Frame rate                               : 50.000 FPS (960 SPF)
Compression mode                         : Lossy
Stream size                              : 33.2 MiB (11%)
Writing library                          : Lavc58.54.100 libopus
Language                                 : Japanese
Default                                  : Yes
Forced                                   : No

Text #1
ID                                       : 3
Format                                   : ASS
Codec ID                                 : S_TEXT/ASS
Codec ID/Info                            : Advanced Sub Station Alpha
Duration                                 : 24 min 28 s
Bit rate                                 : 193 b/s
Count of elements                        : 473
Compression mode                         : Lossless
Stream size                              : 34.6 KiB (0%)
Language                                 : English
Default                                  : Yes
Forced                                   : No

Text #2
ID                                       : 4
Format                                   : ASS
Codec ID                                 : S_TEXT/ASS
Codec ID/Info                            : Advanced Sub Station Alpha
Duration                                 : 24 min 28 s
Bit rate                                 : 155 b/s
Count of elements                        : 422
Compression mode                         : Lossless
Stream size                              : 27.9 KiB (0%)
Language                                 : French
Default                                  : No
Forced                                   : No

Text #3
ID                                       : 5
Format                                   : ASS
Codec ID                                 : S_TEXT/ASS
Codec ID/Info                            : Advanced Sub Station Alpha
Duration                                 : 24 min 28 s
Bit rate                                 : 148 b/s
Count of elements                        : 403
Compression mode                         : Lossless
Stream size                              : 26.6 KiB (0%)
Language                                 : German
Default                                  : No
Forced                                   : No

Text #4
ID                                       : 6
Format                                   : ASS
Codec ID                                 : S_TEXT/ASS
Codec ID/Info                            : Advanced Sub Station Alpha
Duration                                 : 24 min 28 s
Bit rate                                 : 192 b/s
Count of elements                        : 465
Compression mode                         : Lossless
Stream size                              : 34.4 KiB (0%)
Language                                 : Italian
Default                                  : No
Forced                                   : No

Text #5
ID                                       : 7
Format                                   : ASS
Codec ID                                 : S_TEXT/ASS
Codec ID/Info                            : Advanced Sub Station Alpha
Duration                                 : 24 min 23 s
Bit rate                                 : 123 b/s
Count of elements                        : 381
Compression mode                         : Lossless
Stream size                              : 22.0 KiB (0%)
Language                                 : Spanish
Default                                  : No
Forced                                   : No

Text #6
ID                                       : 8
Format                                   : ASS
Codec ID                                 : S_TEXT/ASS
Codec ID/Info                            : Advanced Sub Station Alpha
Duration                                 : 24 min 23 s
Bit rate                                 : 122 b/s
Count of elements                        : 381
Compression mode                         : Lossless
Stream size                              : 21.9 KiB (0%)
Language                                 : Spanish
Default                                  : No
Forced                                   : No

Text #7
ID                                       : 9
Format                                   : ASS
Codec ID                                 : S_TEXT/ASS
Codec ID/Info                            : Advanced Sub Station Alpha
Duration                                 : 24 min 28 s
Bit rate                                 : 185 b/s
Count of elements                        : 478
Compression mode                         : Lossless
Stream size                              : 33.3 KiB (0%)
Language                                 : Portuguese
Default                                  : No
Forced                                   : No

Text #8
ID                                       : 10
Format                                   : ASS
Codec ID                                 : S_TEXT/ASS
Codec ID/Info                            : Advanced Sub Station Alpha
Duration                                 : 24 min 28 s
Bit rate                                 : 238 b/s
Count of elements                        : 480
Compression mode                         : Lossless
Stream size                              : 42.7 KiB (0%)
Language                                 : Russian
Default                                  : No
Forced                                   : No

Text #9
ID                                       : 11
Format                                   : ASS
Codec ID                                 : S_TEXT/ASS
Codec ID/Info                            : Advanced Sub Station Alpha
Duration                                 : 24 min 28 s
Bit rate                                 : 222 b/s
Count of elements                        : 481
Compression mode                         : Lossless
Stream size                              : 39.9 KiB (0%)
Language                                 : Arabic
Default                                  : No
Forced                                   : No

Other Files in this Torrent
[Edge] Mairimashita! Iruma-kun 07.mkv
beta
Anime DDL+NZB mirror
Current Time: 21/01/2021 23:04



About/FAQs