File Size396.3 MB (415,547,997 bytes)
DownloadAnonFiles | ClickNUpload | DropAPK | Free | MultiUp
  • BdUpload
  • DownAce
  • Fichier
  • FileCloud
  • Filerio
  • FilesCdn
  • IndiShare
  • Kbagi
  • Turbobit
  • UpToBox
  • Uppit
| ZippyShare
Sendspace: Part1, Part2
HashesCRC32: A08457B6, MD5: A4B91F813B0E5D8429958B7320B3FDBE, SHA1: 84CFD84620A17C600359AD8BAB02EF687E2DF42E, SHA256: 20887D998E3400662F23B849F73F6BD4CC2186D8435F5B57EFF9FC96B7F3E94A, ED2K: 75598B2ECBE3016F89B2BC1B9430C31C
Screenshots
screenshotscreenshotscreenshotscreenshotscreenshot
SubtitlesAll Attachments | eng [ASS], fre [ASS], ger [ASS], ita [ASS], spa [ASS], spa [ASS], por [ASS], rus [ASS], ara [ASS]
Additional Info
General
Unique ID                                : 302302648997091385503879542649127377853 (0xE36D5F556AB8F8354DD99E3C95271BBD)
Complete name                            : [Edge] Mairimashita! Iruma-kun 023.mkv
Format                                   : Matroska
Format version                           : Version 4
File size                                : 396 MiB
Duration                                 : 24 min 30 s
Overall bit rate                         : 2 261 kb/s
Movie name                               : [Edge] Mairimashita! Iruma-kun 023
Encoded date                             : UTC 2020-06-23 09:43:31
Writing application                      : mkvmerge v47.0.0 ('Black Flag') 64-bit
Writing library                          : libebml v1.3.10 + libmatroska v1.5.2 / Lavf58.29.100

Video
ID                                       : 1
Format                                   : HEVC
Format/Info                              : High Efficiency Video Coding
Format profile                           : Main 10@L4@Main
Codec ID                                 : V_MPEGH/ISO/HEVC
Duration                                 : 24 min 30 s
Bit rate                                 : 2 070 kb/s
Width                                    : 1 920 pixels
Height                                   : 1 080 pixels
Display aspect ratio                     : 16:9
Frame rate mode                          : Constant
Frame rate                               : 23.976 (24000/1001) FPS
Color space                              : YUV
Chroma subsampling                       : 4:2:0
Bit depth                                : 10 bits
Bits/(Pixel*Frame)                       : 0.042
Stream size                              : 363 MiB (92%)
Default                                  : Yes
Forced                                   : No
Color range                              : Limited
Color primaries                          : BT.709
Transfer characteristics                 : BT.709
Matrix coefficients                      : BT.709

Audio
ID                                       : 2
Format                                   : Opus
Codec ID                                 : A_OPUS
Duration                                 : 24 min 30 s
Bit rate                                 : 186 kb/s
Channel(s)                               : 2 channels
Channel layout                           : L R
Sampling rate                            : 48.0 kHz
Frame rate                               : 50.000 FPS (960 SPF)
Compression mode                         : Lossy
Stream size                              : 32.7 MiB (8%)
Writing library                          : Lavc58.54.100 libopus
Language                                 : Japanese
Default                                  : Yes
Forced                                   : No

Text #1
ID                                       : 3
Format                                   : ASS
Codec ID                                 : S_TEXT/ASS
Codec ID/Info                            : Advanced Sub Station Alpha
Duration                                 : 24 min 27 s
Bit rate                                 : 195 b/s
Count of elements                        : 457
Compression mode                         : Lossless
Stream size                              : 35.0 KiB (0%)
Language                                 : English
Default                                  : Yes
Forced                                   : No

Text #2
ID                                       : 4
Format                                   : ASS
Codec ID                                 : S_TEXT/ASS
Codec ID/Info                            : Advanced Sub Station Alpha
Duration                                 : 24 min 27 s
Bit rate                                 : 162 b/s
Count of elements                        : 423
Compression mode                         : Lossless
Stream size                              : 29.0 KiB (0%)
Language                                 : French
Default                                  : No
Forced                                   : No

Text #3
ID                                       : 5
Format                                   : ASS
Codec ID                                 : S_TEXT/ASS
Codec ID/Info                            : Advanced Sub Station Alpha
Duration                                 : 24 min 17 s
Bit rate                                 : 151 b/s
Count of elements                        : 419
Compression mode                         : Lossless
Stream size                              : 27.0 KiB (0%)
Language                                 : German
Default                                  : No
Forced                                   : No

Text #4
ID                                       : 6
Format                                   : ASS
Codec ID                                 : S_TEXT/ASS
Codec ID/Info                            : Advanced Sub Station Alpha
Duration                                 : 24 min 27 s
Bit rate                                 : 198 b/s
Count of elements                        : 455
Compression mode                         : Lossless
Stream size                              : 35.6 KiB (0%)
Language                                 : Italian
Default                                  : No
Forced                                   : No

Text #5
ID                                       : 7
Format                                   : ASS
Codec ID                                 : S_TEXT/ASS
Codec ID/Info                            : Advanced Sub Station Alpha
Duration                                 : 24 min 17 s
Bit rate                                 : 125 b/s
Count of elements                        : 377
Compression mode                         : Lossless
Stream size                              : 22.2 KiB (0%)
Language                                 : Spanish
Default                                  : No
Forced                                   : No

Text #6
ID                                       : 8
Format                                   : ASS
Codec ID                                 : S_TEXT/ASS
Codec ID/Info                            : Advanced Sub Station Alpha
Duration                                 : 24 min 17 s
Bit rate                                 : 123 b/s
Count of elements                        : 377
Compression mode                         : Lossless
Stream size                              : 22.0 KiB (0%)
Language                                 : Spanish
Default                                  : No
Forced                                   : No

Text #7
ID                                       : 9
Format                                   : ASS
Codec ID                                 : S_TEXT/ASS
Codec ID/Info                            : Advanced Sub Station Alpha
Duration                                 : 24 min 27 s
Bit rate                                 : 179 b/s
Count of elements                        : 448
Compression mode                         : Lossless
Stream size                              : 32.2 KiB (0%)
Language                                 : Portuguese
Default                                  : No
Forced                                   : No

Text #8
ID                                       : 10
Format                                   : ASS
Codec ID                                 : S_TEXT/ASS
Codec ID/Info                            : Advanced Sub Station Alpha
Duration                                 : 24 min 27 s
Bit rate                                 : 228 b/s
Count of elements                        : 451
Compression mode                         : Lossless
Stream size                              : 40.9 KiB (0%)
Language                                 : Russian
Default                                  : No
Forced                                   : No

Text #9
ID                                       : 11
Format                                   : ASS
Codec ID                                 : S_TEXT/ASS
Codec ID/Info                            : Advanced Sub Station Alpha
Duration                                 : 24 min 27 s
Bit rate                                 : 223 b/s
Count of elements                        : 457
Compression mode                         : Lossless
Stream size                              : 40.0 KiB (0%)
Language                                 : Arabic
Default                                  : No
Forced                                   : No

Other Files in this Torrent
[Edge] Mairimashita! Iruma-kun 023.mkv
beta
Anime DDL+NZB mirror
Current Time: 22/01/2021 00:30



About/FAQs