File Size310.3 MB (325,352,434 bytes)
DownloadAnonFiles | ClickNUpload | DropAPK | Free | MultiUp
  • BdUpload
  • DownAce
  • Fichier
  • FileCloud
  • Filerio
  • FilesCdn
  • IndiShare
  • Kbagi
  • Turbobit
  • UpToBox
  • Uppit
| ZippyShare
Sendspace: Part1, Part2
HashesCRC32: 3E72B395, MD5: 5E92AA1E9DA51E22650F1072BA537F0A, SHA1: F10B4F76AAB17A06B0C5AA872DCE72715364D99C, SHA256: 9ACB9DC60F6DF7CBC585A72A0C50E5ED1D879089DA3AA9BA0FE6653B1B613109, ED2K: 32778046F642FB395DA63828F61FF8ED
Screenshots
screenshotscreenshotscreenshotscreenshotscreenshot
SubtitlesAll Attachments | eng [ASS], fre [ASS], ger [ASS], ita [ASS], spa [ASS], spa [ASS], por [ASS], rus [ASS], ara [ASS]
Additional Info
General
Unique ID                                : 108376445603103353307106432417269418907 (0x51888B4FBAC6EA23EA86BBB56E7A0B9B)
Complete name                            : [Edge] Mairimashita! Iruma-kun 03.mkv
Format                                   : Matroska
Format version                           : Version 4
File size                                : 310 MiB
Duration                                 : 24 min 30 s
Overall bit rate                         : 1 770 kb/s
Movie name                               : [Edge] Mairimashita! Iruma-kun 03
Encoded date                             : UTC 2020-06-23 09:41:46
Writing application                      : mkvmerge v47.0.0 ('Black Flag') 64-bit
Writing library                          : libebml v1.3.10 + libmatroska v1.5.2 / Lavf58.20.100

Video
ID                                       : 1
Format                                   : HEVC
Format/Info                              : High Efficiency Video Coding
Format profile                           : Main 10@L4@Main
Codec ID                                 : V_MPEGH/ISO/HEVC
Duration                                 : 24 min 30 s
Bit rate                                 : 1 580 kb/s
Width                                    : 1 920 pixels
Height                                   : 1 080 pixels
Display aspect ratio                     : 16:9
Frame rate mode                          : Constant
Frame rate                               : 23.976 (24000/1001) FPS
Color space                              : YUV
Chroma subsampling                       : 4:2:0
Bit depth                                : 10 bits
Bits/(Pixel*Frame)                       : 0.032
Stream size                              : 277 MiB (89%)
Default                                  : Yes
Forced                                   : No
Color range                              : Limited
Color primaries                          : BT.709
Transfer characteristics                 : BT.709
Matrix coefficients                      : BT.709

Audio
ID                                       : 2
Format                                   : Opus
Codec ID                                 : A_OPUS
Duration                                 : 24 min 30 s
Bit rate                                 : 186 kb/s
Channel(s)                               : 2 channels
Channel layout                           : L R
Sampling rate                            : 48.0 kHz
Frame rate                               : 50.000 FPS (960 SPF)
Compression mode                         : Lossy
Stream size                              : 32.5 MiB (10%)
Writing library                          : Lavc58.54.100 libopus
Language                                 : Japanese
Default                                  : Yes
Forced                                   : No

Text #1
ID                                       : 3
Format                                   : ASS
Codec ID                                 : S_TEXT/ASS
Codec ID/Info                            : Advanced Sub Station Alpha
Duration                                 : 24 min 26 s
Bit rate                                 : 205 b/s
Count of elements                        : 506
Compression mode                         : Lossless
Stream size                              : 36.8 KiB (0%)
Language                                 : English
Default                                  : Yes
Forced                                   : No

Text #2
ID                                       : 4
Format                                   : ASS
Codec ID                                 : S_TEXT/ASS
Codec ID/Info                            : Advanced Sub Station Alpha
Duration                                 : 24 min 27 s
Bit rate                                 : 151 b/s
Count of elements                        : 401
Compression mode                         : Lossless
Stream size                              : 27.1 KiB (0%)
Language                                 : French
Default                                  : No
Forced                                   : No

Text #3
ID                                       : 5
Format                                   : ASS
Codec ID                                 : S_TEXT/ASS
Codec ID/Info                            : Advanced Sub Station Alpha
Duration                                 : 24 min 23 s
Bit rate                                 : 147 b/s
Count of elements                        : 416
Compression mode                         : Lossless
Stream size                              : 26.3 KiB (0%)
Language                                 : German
Default                                  : No
Forced                                   : No

Text #4
ID                                       : 6
Format                                   : ASS
Codec ID                                 : S_TEXT/ASS
Codec ID/Info                            : Advanced Sub Station Alpha
Duration                                 : 24 min 26 s
Bit rate                                 : 208 b/s
Count of elements                        : 506
Compression mode                         : Lossless
Stream size                              : 37.4 KiB (0%)
Language                                 : Italian
Default                                  : No
Forced                                   : No

Text #5
ID                                       : 7
Format                                   : ASS
Codec ID                                 : S_TEXT/ASS
Codec ID/Info                            : Advanced Sub Station Alpha
Duration                                 : 24 min 18 s
Bit rate                                 : 135 b/s
Count of elements                        : 419
Compression mode                         : Lossless
Stream size                              : 24.2 KiB (0%)
Language                                 : Spanish
Default                                  : No
Forced                                   : No

Text #6
ID                                       : 8
Format                                   : ASS
Codec ID                                 : S_TEXT/ASS
Codec ID/Info                            : Advanced Sub Station Alpha
Duration                                 : 24 min 18 s
Bit rate                                 : 134 b/s
Count of elements                        : 416
Compression mode                         : Lossless
Stream size                              : 24.0 KiB (0%)
Language                                 : Spanish
Default                                  : No
Forced                                   : No

Text #7
ID                                       : 9
Format                                   : ASS
Codec ID                                 : S_TEXT/ASS
Codec ID/Info                            : Advanced Sub Station Alpha
Duration                                 : 24 min 26 s
Bit rate                                 : 190 b/s
Count of elements                        : 508
Compression mode                         : Lossless
Stream size                              : 34.1 KiB (0%)
Language                                 : Portuguese
Default                                  : No
Forced                                   : No

Text #8
ID                                       : 10
Format                                   : ASS
Codec ID                                 : S_TEXT/ASS
Codec ID/Info                            : Advanced Sub Station Alpha
Duration                                 : 24 min 26 s
Bit rate                                 : 241 b/s
Count of elements                        : 504
Compression mode                         : Lossless
Stream size                              : 43.3 KiB (0%)
Language                                 : Russian
Default                                  : No
Forced                                   : No

Text #9
ID                                       : 11
Format                                   : ASS
Codec ID                                 : S_TEXT/ASS
Codec ID/Info                            : Advanced Sub Station Alpha
Duration                                 : 24 min 26 s
Bit rate                                 : 239 b/s
Count of elements                        : 509
Compression mode                         : Lossless
Stream size                              : 43.0 KiB (0%)
Language                                 : Arabic
Default                                  : No
Forced                                   : No

Other Files in this Torrent
[Edge] Mairimashita! Iruma-kun 03.mkv
beta
Anime DDL+NZB mirror
Current Time: 18/01/2021 19:58



About/FAQs