File Size269.1 MB (282,159,326 bytes)
DownloadAnonFiles | ClickNUpload | DropAPK | Free | MultiUp
  • BdUpload
  • DownAce
  • Fichier
  • FileCloud
  • Filerio
  • FilesCdn
  • IndiShare
  • Kbagi
  • Turbobit
  • UpToBox
  • Uppit
| Sendspace | SolidFiles | ZippyShare
HashesCRC32: 90239F2D, MD5: 6E4D051492D36028B1B8EAE94BAF53D7, SHA1: A4F66A54A31A5F9BF0BB0302205283E4E0D6C6BC, SHA256: D9CAD848C9DE979A465459A5ABD2BB8418922EB3E6E193FC45951BF83F18C98C, ED2K: 23E09F185556EECA251FBDE5A770ADC8
Screenshots
screenshotscreenshotscreenshotscreenshotscreenshot
Additional Info
General
Complete name                            : Episode 12.mp4
Format                                   : MPEG-4
Format profile                           : Base Media / Version 2
Codec ID                                 : mp42 (isom/mp42)
File size                                : 269 MiB
Duration                                 : 22 min 1 s
Overall bit rate mode                    : Variable
Overall bit rate                         : 1 708 kb/s
Encoded date                             : UTC 2020-04-20 00:50:46
Tagged date                              : UTC 2020-04-20 00:50:46
gsst                                     : 0
gstd                                     : 1321401

Video
ID                                       : 1
Format                                   : AVC
Format/Info                              : Advanced Video Codec
Format profile                           : High@L4
Format settings                          : CABAC / 2 Ref Frames
Format settings, CABAC                   : Yes
Format settings, ReFrames                : 2 frames
Codec ID                                 : avc1
Codec ID/Info                            : Advanced Video Coding
Duration                                 : 22 min 1 s
Bit rate                                 : 1 576 kb/s
Width                                    : 1 920 pixels
Height                                   : 1 080 pixels
Display aspect ratio                     : 16:9
Frame rate mode                          : Constant
Frame rate                               : 29.970 (30000/1001) FPS
Color space                              : YUV
Chroma subsampling                       : 4:2:0
Bit depth                                : 8 bits
Scan type                                : Progressive
Bits/(Pixel*Frame)                       : 0.025
Stream size                              : 248 MiB (92%)
Title                                    : ISO Media file produced by Google Inc. Created on: 04/19/2020.
Writing library                          : x264 core 155 r2901 7d0ff22
Encoded date                             : UTC 2020-04-20 00:50:46
Tagged date                              : UTC 2020-04-20 00:50:46
Color range                              : Limited
Color primaries                          : BT.709
Transfer characteristics                 : BT.709
Matrix coefficients                      : BT.709
Codec configuration box                  : avcC

Audio
ID                                       : 2
Format                                   : AAC LC
Format/Info                              : Advanced Audio Codec Low Complexity
Codec ID                                 : mp4a-40-2
Duration                                 : 22 min 1 s
Bit rate mode                            : Variable
Bit rate                                 : 128 kb/s
Channel(s)                               : 2 channels
Channel layout                           : L R
Sampling rate                            : 44.1 kHz
Frame rate                               : 43.066 FPS (1024 SPF)
Compression mode                         : Lossy
Stream size                              : 20.2 MiB (7%)
Title                                    : ISO Media file produced by Google Inc. Created on: 04/19/2020.
Language                                 : English
Encoded date                             : UTC 2020-04-20 00:50:46
Tagged date                              : UTC 2020-04-20 00:50:46

Other Files in this Torrent
Episode 12.mp4
beta
Anime DDL+NZB mirror
Current Time: 01/12/2021 12:52



About/FAQs

Discord